  0
SECTION
  2
HEADER
  9
$ACADVER
  1
AC1021
  9
$ACADMAINTVER
 70
    25
  9
$DWGCODEPAGE
  3
ANSI_1252
  9
$LASTSAVEDBY
  1
Josep Sancho
  9
$INSBASE
 10
0.0
 20
0.0
 30
0.0
  9
$EXTMIN
 10
176.8264998564
 20
49.9980727422
 30
0.0
  9
$EXTMAX
 10
2049.4323743066
 20
3294.7947093306
 30
0.0
  9
$LIMMIN
 10
0.0
 20
0.0
  9
$LIMMAX
 10
2100.0
 20
2970.0
  9
$ORTHOMODE
 70
     0
  9
$REGENMODE
 70
     1
  9
$FILLMODE
 70
     1
  9
$QTEXTMODE
 70
     0
  9
$MIRRTEXT
 70
     1
  9
$LTSCALE
 40
10.0
  9
$ATTMODE
 70
     1
  9
$TEXTSIZE
 40
35.0
  9
$TRACEWID
 40
1.0
  9
$TEXTSTYLE
  7
Standard
  9
$CLAYER
  8
0
  9
$CELTYPE
  6
ByLayer
  9
$CECOLOR
 62
   256
  9
$CELTSCALE
 40
1.0
  9
$DISPSILH
 70
     0
  9
$DIMSCALE
 40
1.0
  9
$DIMASZ
 40
33.02
  9
$DIMEXO
 40
10.0
  9
$DIMDLI
 40
3.75
  9
$DIMRND
 40
0.0
  9
$DIMDLE
 40
0.0
  9
$DIMEXE
 40
10.0
  9
$DIMTP
 40
0.0
  9
$DIMTM
 40
0.0
  9
$DIMTXT
 40
35.0
  9
$DIMCEN
 40
2.5
  9
$DIMTSZ
 40
0.0
  9
$DIMTOL
 70
     0
  9
$DIMLIM
 70
     0
  9
$DIMTIH
 70
     1
  9
$DIMTOH
 70
     1
  9
$DIMSE1
 70
     0
  9
$DIMSE2
 70
     0
  9
$DIMTAD
 70
     1
  9
$DIMZIN
 70
     0
  9
$DIMBLK
  1

  9
$DIMASO
 70
     1
  9
$DIMSHO
 70
     1
  9
$DIMPOST
  1

  9
$DIMAPOST
  1

  9
$DIMALT
 70
     0
  9
$DIMALTD
 70
     3
  9
$DIMALTF
 40
0.0393700787
  9
$DIMLFAC
 40
1.0
  9
$DIMTOFL
 70
     1
  9
$DIMTVP
 40
0.0
  9
$DIMTIX
 70
     0
  9
$DIMSOXD
 70
     0
  9
$DIMSAH
 70
     0
  9
$DIMBLK1
  1

  9
$DIMBLK2
  1

  9
$DIMSTYLE
  2
ISO-25
  9
$DIMCLRD
 70
     0
  9
$DIMCLRE
 70
     0
  9
$DIMCLRT
 70
     0
  9
$DIMTFAC
 40
1.0
  9
$DIMGAP
 40
15.24
  9
$DIMJUST
 70
     0
  9
$DIMSD1
 70
     0
  9
$DIMSD2
 70
     0
  9
$DIMTOLJ
 70
     0
  9
$DIMTZIN
 70
     0
  9
$DIMALTZ
 70
     0
  9
$DIMALTTZ
 70
     0
  9
$DIMUPT
 70
     0
  9
$DIMDEC
 70
     3
  9
$DIMTDEC
 70
     3
  9
$DIMALTU
 70
     2
  9
$DIMALTTD
 70
     3
  9
$DIMTXSTY
  7
Standard
  9
$DIMAUNIT
 70
     0
  9
$DIMADEC
 70
     2
  9
$DIMALTRND
 40
0.0
  9
$DIMAZIN
 70
     0
  9
$DIMDSEP
 70
    44
  9
$DIMATFIT
 70
     3
  9
$DIMFRAC
 70
     0
  9
$DIMLDRBLK
  1

  9
$DIMLUNIT
 70
     2
  9
$DIMLWD
 70
    -2
  9
$DIMLWE
 70
    -2
  9
$DIMTMOVE
 70
     0
  9
$DIMFXL
 40
1.0
  9
$DIMFXLON
 70
     0
  9
$DIMJOGANG
 40
0.7853981633974483
  9
$DIMTFILL
 70
     0
  9
$DIMTFILLCLR
 70
     0
  9
$DIMARCSYM
 70
     0
  9
$DIMLTYPE
  6

  9
$DIMLTEX1
  6

  9
$DIMLTEX2
  6

  9
$LUNITS
 70
     2
  9
$LUPREC
 70
     2
  9
$SKETCHINC
 40
1.0
  9
$FILLETRAD
 40
10.0
  9
$AUNITS
 70
     0
  9
$AUPREC
 70
     2
  9
$MENU
  1
.
  9
$ELEVATION
 40
0.0
  9
$PELEVATION
 40
0.0
  9
$THICKNESS
 40
0.0
  9
$LIMCHECK
 70
     0
  9
$CHAMFERA
 40
10.0
  9
$CHAMFERB
 40
10.0
  9
$CHAMFERC
 40
20.0
  9
$CHAMFERD
 40
0.0
  9
$SKPOLY
 70
     0
  9
$TDCREATE
 40
2453353.800459155
  9
$TDUCREATE
 40
2453353.717125822
  9
$TDUPDATE
 40
2457122.89290294
  9
$TDUUPDATE
 40
2457122.809569607
  9
$TDINDWG
 40
0.0434027894
  9
$TDUSRTIMER
 40
0.0434027894
  9
$USRTIMER
 70
     1
  9
$ANGBASE
 50
0.0
  9
$ANGDIR
 70
     0
  9
$PDMODE
 70
     0
  9
$PDSIZE
 40
-1.0
  9
$PLINEWID
 40
0.0
  9
$SPLFRAME
 70
     0
  9
$SPLINETYPE
 70
     6
  9
$SPLINESEGS
 70
     8
  9
$HANDSEED
  5
22F
  9
$SURFTAB1
 70
     6
  9
$SURFTAB2
 70
     6
  9
$SURFTYPE
 70
     6
  9
$SURFU
 70
     6
  9
$SURFV
 70
     6
  9
$UCSBASE
  2

  9
$UCSNAME
  2

  9
$UCSORG
 10
0.0
 20
0.0
 30
0.0
  9
$UCSXDIR
 10
1.0
 20
0.0
 30
0.0
  9
$UCSYDIR
 10
0.0
 20
1.0
 30
0.0
  9
$UCSORTHOREF
  2

  9
$UCSORTHOVIEW
 70
     0
  9
$UCSORGTOP
 10
0.0
 20
0.0
 30
0.0
  9
$UCSORGBOTTOM
 10
0.0
 20
0.0
 30
0.0
  9
$UCSORGLEFT
 10
0.0
 20
0.0
 30
0.0
  9
$UCSORGRIGHT
 10
0.0
 20
0.0
 30
0.0
  9
$UCSORGFRONT
 10
0.0
 20
0.0
 30
0.0
  9
$UCSORGBACK
 10
0.0
 20
0.0
 30
0.0
  9
$PUCSBASE
  2

  9
$PUCSNAME
  2

  9
$PUCSORG
 10
0.0
 20
0.0
 30
0.0
  9
$PUCSXDIR
 10
1.0
 20
0.0
 30
0.0
  9
$PUCSYDIR
 10
0.0
 20
1.0
 30
0.0
  9
$PUCSORTHOREF
  2

  9
$PUCSORTHOVIEW
 70
     0
  9
$PUCSORGTOP
 10
0.0
 20
0.0
 30
0.0
  9
$PUCSORGBOTTOM
 10
0.0
 20
0.0
 30
0.0
  9
$PUCSORGLEFT
 10
0.0
 20
0.0
 30
0.0
  9
$PUCSORGRIGHT
 10
0.0
 20
0.0
 30
0.0
  9
$PUCSORGFRONT
 10
0.0
 20
0.0
 30
0.0
  9
$PUCSORGBACK
 10
0.0
 20
0.0
 30
0.0
  9
$USERI1
 70
     0
  9
$USERI2
 70
     0
  9
$USERI3
 70
     0
  9
$USERI4
 70
     0
  9
$USERI5
 70
     0
  9
$USERR1
 40
0.0
  9
$USERR2
 40
0.0
  9
$USERR3
 40
0.0
  9
$USERR4
 40
0.0
  9
$USERR5
 40
0.0
  9
$WORLDVIEW
 70
     1
  9
$SHADEDGE
 70
     3
  9
$SHADEDIF
 70
    70
  9
$TILEMODE
 70
     1
  9
$MAXACTVP
 70
    64
  9
$PINSBASE
 10
0.0
 20
0.0
 30
0.0
  9
$PLIMCHECK
 70
     0
  9
$PEXTMIN
 10
1.000000000000000E+20
 20
1.000000000000000E+20
 30
1.000000000000000E+20
  9
$PEXTMAX
 10
-1.000000000000000E+20
 20
-1.000000000000000E+20
 30
-1.000000000000000E+20
  9
$PLIMMIN
 10
0.0
 20
0.0
  9
$PLIMMAX
 10
420.0
 20
297.0
  9
$UNITMODE
 70
     0
  9
$VISRETAIN
 70
     1
  9
$PLINEGEN
 70
     0
  9
$PSLTSCALE
 70
     1
  9
$TREEDEPTH
 70
  3020
  9
$CMLSTYLE
  2
Standard
  9
$CMLJUST
 70
     0
  9
$CMLSCALE
 40
20.0
  9
$PROXYGRAPHICS
 70
     1
  9
$MEASUREMENT
 70
     1
  9
$CELWEIGHT
370
    -1
  9
$ENDCAPS
280
     0
  9
$JOINSTYLE
280
     0
  9
$LWDISPLAY
290
     1
  9
$INSUNITS
 70
     4
  9
$HYPERLINKBASE
  1

  9
$STYLESHEET
  1

  9
$XEDIT
290
     0
  9
$CEPSNTYPE
380
     0
  9
$PSTYLEMODE
290
     1
  9
$FINGERPRINTGUID
  2
{DC571F58-A6FE-480D-8DAF-27B13202082E}
  9
$VERSIONGUID
  2
{FAEB1C32-E019-11D5-929B-00C0DF256EC4}
  9
$EXTNAMES
290
     1
  9
$PSVPSCALE
 40
0.0
  9
$OLESTARTUP
290
     0
  9
$SORTENTS
280
   127
  9
$INDEXCTL
280
     0
  9
$HIDETEXT
280
     1
  9
$XCLIPFRAME
290
     0
  9
$HALOGAP
280
     0
  9
$OBSCOLOR
 70
   257
  9
$OBSLTYPE
280
     0
  9
$INTERSECTIONDISPLAY
280
     0
  9
$INTERSECTIONCOLOR
 70
   257
  9
$DIMASSOC
280
     2
  9
$PROJECTNAME
  1

  9
$CAMERADISPLAY
290
     0
  9
$LENSLENGTH
 40
50.0
  9
$CAMERAHEIGHT
 40
0.0
  9
$STEPSPERSEC
 40
2.0
  9
$STEPSIZE
 40
6.0
  9
$3DDWFPREC
 40
2.0
  9
$PSOLWIDTH
 40
0.25
  9
$PSOLHEIGHT
 40
4.0
  9
$LOFTANG1
 40
1.570796326794897
  9
$LOFTANG2
 40
1.570796326794897
  9
$LOFTMAG1
 40
0.0
  9
$LOFTMAG2
 40
0.0
  9
$LOFTPARAM
 70
     7
  9
$LOFTNORMALS
280
     1
  9
$LATITUDE
 40
37.795
  9
$LONGITUDE
 40
-122.394
  9
$NORTHDIRECTION
 40
0.0
  9
$TIMEZONE
 70
 -8000
  9
$LIGHTGLYPHDISPLAY
280
     1
  9
$TILEMODELIGHTSYNCH
280
     1
  9
$SOLIDHIST
280
     1
  9
$SHOWHIST
280
     1
  9
$DWFFRAME
280
     2
  9
$DGNFRAME
280
     2
  9
$REALWORLDSCALE
290
     1
  9
$INTERFERECOLOR
 62
   256
  9
$CSHADOW
280
     0
  9
$SHADOWPLANELOCATION
 40
0.0
  0
ENDSEC
  0
SECTION
  2
CLASSES
  0
CLASS
  1
ACDBDICTIONARYWDFLT
  2
AcDbDictionaryWithDefault
  3
ObjectDBX Classes
 90
        0
 91
        4
280
     0
281
     0
  0
CLASS
  1
ACDBPLACEHOLDER
  2
AcDbPlaceHolder
  3
ObjectDBX Classes
 90
        0
 91
        1
280
     0
281
     0
  0
CLASS
  1
LAYOUT
  2
AcDbLayout
  3
ObjectDBX Classes
 90
        0
 91
        1
280
     0
281
     0
  0
CLASS
  1
DICTIONARYVAR
  2
AcDbDictionaryVar
  3
ObjectDBX Classes
 90
        0
 91
        4
280
     0
281
     0
  0
CLASS
  1
TABLESTYLE
  2
AcDbTableStyle
  3
ObjectDBX Classes
 90
     4095
 91
        4
280
     0
281
     0
  0
CLASS
  1
SCALE
  2
AcDbScale
  3
ObjectDBX Classes
 90
     1153
 91
        4
280
     0
281
     0
  0
CLASS
  1
IMAGEDEF
  2
AcDbRasterImageDef
  3
ISM
 90
        0
 91
        4
280
     0
281
     0
  0
CLASS
  1
VISUALSTYLE
  2
AcDbVisualStyle
  3
ObjectDBX Classes
 90
     4095
 91
        4
280
     0
281
     0
  0
ENDSEC
  0
SECTION
  2
TABLES
  0
TABLE
  2
VPORT
  5
8
330
0
100
AcDbSymbolTable
 70
     2
  0
VPORT
  5
97
330
8
100
AcDbSymbolTableRecord
100
AcDbViewportTableRecord
  2
*Active
 70
     0
 10
0.0
 20
0.0
 11
1.0
 21
1.0
 12
1708.232709863536
 22
1841.61266246245
 13
0.0
 23
0.0
 14
10.0
 24
10.0
 15
10.0
 25
10.0
 16
0.0
 26
0.0
 36
1.0
 17
0.0
 27
0.0
 37
0.0
 40
1983.627640085304
 41
0.7070707071
 42
50.0
 43
0.0
 44
0.0
 50
0.0
 51
0.0
 71
    16
 72
  2000
 73
     1
 74
     3
 75
     0
 76
     0
 77
     0
 78
     0
281
     0
 65
     0
110
0.0
120
0.0
130
0.0
111
1.0
121
0.0
131
0.0
112
0.0
122
1.0
132
0.0
 79
     0
146
0.0
 60
     3
 61
     5
292
     1
282
     1
141
0.0
142
0.0
 63
   256
  0
ENDTAB
  0
TABLE
  2
LTYPE
  5
5
330
0
100
AcDbSymbolTable
 70
     6
  0
LTYPE
  5
14
330
5
100
AcDbSymbolTableRecord
100
AcDbLinetypeTableRecord
  2
ByBlock
 70
     0
  3

 72
    65
 73
     0
 40
0.0
  0
LTYPE
  5
15
330
5
100
AcDbSymbolTableRecord
100
AcDbLinetypeTableRecord
  2
ByLayer
 70
     0
  3

 72
    65
 73
     0
 40
0.0
  0
LTYPE
  5
16
330
5
100
AcDbSymbolTableRecord
100
AcDbLinetypeTableRecord
  2
Continuous
 70
     0
  3
Solid line
 72
    65
 73
     0
 40
0.0
  0
LTYPE
  5
206
330
5
100
AcDbSymbolTableRecord
100
AcDbLinetypeTableRecord
  2
HIDDEN
 70
     0
  3
Hidden __ __ __ __ __ __ __ __ __ __ __ __ __ __
 72
    65
 73
     2
 40
1.905
 49
1.27
 74
     4
 75
     0
340
0
 46
1.0
 50
0.0
 44
0.0
 45
0.0
 49
-0.635
 74
     4
 75
     0
340
0
 46
1.0
 50
0.0
 44
0.0
 45
0.0
  0
LTYPE
  5
207
330
5
100
AcDbSymbolTableRecord
100
AcDbLinetypeTableRecord
  2
PHANTOM
 70
     0
  3
Phantom ______  __  __  ______  __  __  ______
 72
    65
 73
     6
 40
12.7
 49
6.35
 74
     4
 75
     0
340
0
 46
1.0
 50
0.0
 44
0.0
 45
0.0
 49
-1.27
 74
     4
 75
     0
340
0
 46
1.0
 50
0.0
 44
0.0
 45
0.0
 49
1.27
 74
     4
 75
     0
340
0
 46
1.0
 50
0.0
 44
0.0
 45
0.0
 49
-1.27
 74
     4
 75
     0
340
0
 46
1.0
 50
0.0
 44
0.0
 45
0.0
 49
1.27
 74
     4
 75
     0
340
0
 46
1.0
 50
0.0
 44
0.0
 45
0.0
 49
-1.27
 74
     4
 75
     0
340
0
 46
1.0
 50
0.0
 44
0.0
 45
0.0
  0
LTYPE
  5
208
330
5
100
AcDbSymbolTableRecord
100
AcDbLinetypeTableRecord
  2
CENTER
 70
     0
  3
Center ____ _ ____ _ ____ _ ____ _ ____ _ ____
 72
    65
 73
     4
 40
10.16
 49
6.35
 74
     4
 75
     0
340
0
 46
1.0
 50
0.0
 44
0.0
 45
0.0
 49
-1.27
 74
     4
 75
     0
340
0
 46
1.0
 50
0.0
 44
0.0
 45
0.0
 49
1.27
 74
     4
 75
     0
340
0
 46
1.0
 50
0.0
 44
0.0
 45
0.0
 49
-1.27
 74
     4
 75
     0
340
0
 46
1.0
 50
0.0
 44
0.0
 45
0.0
  0
LTYPE
  5
209
330
5
100
AcDbSymbolTableRecord
100
AcDbLinetypeTableRecord
  2
CENTERX2
 70
     0
  3
Center (2x) ________  __  ________  __  _____
 72
    65
 73
     4
 40
20.32
 49
12.7
 74
     4
 75
     0
340
0
 46
1.0
 50
0.0
 44
0.0
 45
0.0
 49
-2.54
 74
     4
 75
     0
340
0
 46
1.0
 50
0.0
 44
0.0
 45
0.0
 49
2.54
 74
     4
 75
     0
340
0
 46
1.0
 50
0.0
 44
0.0
 45
0.0
 49
-2.54
 74
     4
 75
     0
340
0
 46
1.0
 50
0.0
 44
0.0
 45
0.0
  0
LTYPE
  5
20A
330
5
100
AcDbSymbolTableRecord
100
AcDbLinetypeTableRecord
  2
DOT2
 70
     0
  3
Dot (.5x) ........................................
 72
    65
 73
     2
 40
0.635
 49
0.0
 74
     4
 75
     0
340
0
 46
1.0
 50
0.0
 44
0.0
 45
0.0
 49
-0.635
 74
     4
 75
     0
340
0
 46
1.0
 50
0.0
 44
0.0
 45
0.0
  0
ENDTAB
  0
TABLE
  2
LAYER
  5
2
330
0
100
AcDbSymbolTable
 70
     1
  0
LAYER
  5
10
330
2
100
AcDbSymbolTableRecord
100
AcDbLayerTableRecord
  2
0
 70
     0
 62
     7
  6
Continuous
370
    -3
390
F
347
0
  0
ENDTAB
  0
TABLE
  2
STYLE
  5
3
330
0
100
AcDbSymbolTable
 70
     4
  0
STYLE
  5
11
330
3
100
AcDbSymbolTableRecord
100
AcDbTextStyleTableRecord
  2
Standard
 70
     0
 40
0.0
 41
1.0
 50
0.0
 71
     0
 42
2.5
  3
txt
  4

  0
STYLE
  5
64
330
3
100
AcDbSymbolTableRecord
100
AcDbTextStyleTableRecord
  2
SLDTEXTSTYLE0
 70
     0
 40
0.0
 41
0.75
 50
0.0
 71
     0
 42
0.2
  3
TXT
  4

  0
STYLE
  5
8A
330
3
100
AcDbSymbolTableRecord
100
AcDbTextStyleTableRecord
  2
SLDTEXTSTYLE1
 70
     0
 40
0.0
 41
0.6944444444
 50
0.0
 71
     0
 42
0.2
  3
TXT
  4

  0
STYLE
  5
205
330
3
100
AcDbSymbolTableRecord
100
AcDbTextStyleTableRecord
  2
SLDTEXTSTYLE2
 70
     0
 40
0.0
 41
0.605
 50
0.0
 71
     0
 42
0.2
  3
TXT
  4

  0
ENDTAB
  0
TABLE
  2
VIEW
  5
6
330
0
100
AcDbSymbolTable
 70
     0
  0
ENDTAB
  0
TABLE
  2
UCS
  5
7
330
0
100
AcDbSymbolTable
 70
     0
  0
ENDTAB
  0
TABLE
  2
APPID
  5
9
330
0
100
AcDbSymbolTable
 70
     1
  0
APPID
  5
12
330
9
100
AcDbSymbolTableRecord
100
AcDbRegAppTableRecord
  2
ACAD
 70
     0
  0
ENDTAB
  0
TABLE
  2
DIMSTYLE
  5
A
330
0
100
AcDbSymbolTable
 70
     5
100
AcDbDimStyleTable
  0
DIMSTYLE
105
27
330
A
100
AcDbSymbolTableRecord
100
AcDbDimStyleTableRecord
  2
Standard
 70
     0
278
     0
340
11
  0
DIMSTYLE
105
20B
330
A
100
AcDbSymbolTableRecord
100
AcDbDimStyleTableRecord
  2
ISO-25
 70
     0
 41
2.5
 42
0.625
 43
3.75
 44
1.25
 73
     0
 74
     0
 77
     1
 78
     8
140
2.5
141
2.5
143
0.0393700787
147
0.625
171
     3
172
     1
271
     2
272
     2
274
     3
278
    44
283
     0
284
     8
340
11
  0
DIMSTYLE
105
19C
102
{ACAD_REACTORS
330
19B
102
}
330
A
100
AcDbSymbolTableRecord
100
AcDbDimStyleTableRecord
  2
SLDDIMSTYLE0
 70
     0
 41
33.02
 44
0.0
 45
0.000000001
 73
     0
 77
     1
 78
    12
140
35.0
147
8.75
173
     1
271
     0
272
     0
284
    12
340
64
  0
DIMSTYLE
105
1A7
102
{ACAD_REACTORS
330
1A6
330
1D8
102
}
330
A
100
AcDbSymbolTableRecord
100
AcDbDimStyleTableRecord
  2
SLDDIMSTYLE1
 70
     0
 41
33.02
 44
0.0
 45
0.000000001
 73
     0
 77
     1
 78
    12
140
35.0
147
8.75
173
     1
271
     2
272
     2
284
    12
340
64
  0
DIMSTYLE
105
1B2
102
{ACAD_REACTORS
330
1B1
330
1BF
330
1CC
330
1E2
102
}
330
A
100
AcDbSymbolTableRecord
100
AcDbDimStyleTableRecord
  2
SLDDIMSTYLE2
 70
     0
 41
33.02
 44
0.0
 45
0.000000001
 73
     0
 77
     1
 78
    12
140
35.0
147
8.75
173
     1
271
     2
272
     2
284
    12
340
64
  0
ENDTAB
  0
TABLE
  2
BLOCK_RECORD
  5
1
330
0
100
AcDbSymbolTable
 70
     9
  0
BLOCK_RECORD
  5
1F
102
{ACAD_XDICTIONARY
360
22D
102
}
330
1
100
AcDbSymbolTableRecord
100
AcDbBlockTableRecord
  2
*Model_Space
340
22
 70
     0
280
     1
281
     0
  0
BLOCK_RECORD
  5
73
330
1
100
AcDbSymbolTableRecord
100
AcDbBlockTableRecord
  2
*Paper_Space
340
74
 70
     0
280
     1
281
     0
  0
BLOCK_RECORD
  5
23
330
1
100
AcDbSymbolTableRecord
100
AcDbBlockTableRecord
  2
*Paper_Space0
340
26
 70
     0
280
     1
281
     0
  0
BLOCK_RECORD
  5
214
330
1
100
AcDbSymbolTableRecord
100
AcDbBlockTableRecord
  2
SW_BROKEN_VIEW_0
340
0
 70
     0
280
     1
281
     0
  0
BLOCK_RECORD
  5
19D
330
1
100
AcDbSymbolTableRecord
100
AcDbBlockTableRecord
  2
*D2
340
0
 70
     0
280
     1
281
     0
  0
BLOCK_RECORD
  5
1A8
330
1
100
AcDbSymbolTableRecord
100
AcDbBlockTableRecord
  2
*D3
340
0
 70
     0
280
     1
281
     0
  0
BLOCK_RECORD
  5
1B3
330
1
100
AcDbSymbolTableRecord
100
AcDbBlockTableRecord
  2
*D4
340
0
 70
     0
280
     1
281
     0
  0
BLOCK_RECORD
  5
1C0
330
1
100
AcDbSymbolTableRecord
100
AcDbBlockTableRecord
  2
*D5
340
0
 70
     0
280
     1
281
     0
  0
BLOCK_RECORD
  5
1CD
330
1
100
AcDbSymbolTableRecord
100
AcDbBlockTableRecord
  2
*D6
340
0
 70
     0
280
     1
281
     0
  0
BLOCK_RECORD
  5
1D9
330
1
100
AcDbSymbolTableRecord
100
AcDbBlockTableRecord
  2
*D7
340
0
 70
     0
280
     1
281
     0
  0
BLOCK_RECORD
  5
1E3
330
1
100
AcDbSymbolTableRecord
100
AcDbBlockTableRecord
  2
*D8
340
0
 70
     0
280
     1
281
     0
  0
ENDTAB
  0
ENDSEC
  0
SECTION
  2
BLOCKS
  0
BLOCK
  5
20
330
1F
100
AcDbEntity
  8
0
100
AcDbBlockBegin
  2
*Model_Space
 70
     0
 10
0.0
 20
0.0
 30
0.0
  3
*Model_Space
  1

  0
ENDBLK
  5
21
330
1F
100
AcDbEntity
  8
0
100
AcDbBlockEnd
  0
BLOCK
  5
75
330
73
100
AcDbEntity
 67
     1
  8
0
100
AcDbBlockBegin
  2
*Paper_Space
 70
     0
 10
0.0
 20
0.0
 30
0.0
  3
*Paper_Space
  1

  0
ENDBLK
  5
76
330
73
100
AcDbEntity
 67
     1
  8
0
100
AcDbBlockEnd
  0
BLOCK
  5
212
330
23
100
AcDbEntity
  8
0
100
AcDbBlockBegin
  2
*Paper_Space0
 70
     0
 10
0.0
 20
0.0
 30
0.0
  3
*Paper_Space0
  1

  0
ENDBLK
  5
213
330
23
100
AcDbEntity
  8
0
100
AcDbBlockEnd
  0
BLOCK
  5
215
330
214
100
AcDbEntity
  8
0
100
AcDbBlockBegin
  2
SW_BROKEN_VIEW_0
 70
     0
 10
0.0
 20
0.0
 30
0.0
  3
SW_BROKEN_VIEW_0
  1

  0
LINE
  5
225
330
214
100
AcDbEntity
  8
0
  6
CENTERX2
 62
     0
 48
10.0
100
AcDbLine
 10
0.0
 20
0.0
 30
0.0
 11
20.6940360367
 21
0.0
 31
0.0
  0
ENDBLK
  5
216
330
214
100
AcDbEntity
  8
0
100
AcDbBlockEnd
  0
BLOCK
  5
217
330
19D
100
AcDbEntity
  8
0
100
AcDbBlockBegin
  2
*D2
 70
     1
 10
0.0
 20
0.0
 30
0.0
  3
*D2
  1

  0
SOLID
  5
1A0
330
19D
100
AcDbEntity
  8
0
  6
Continuous
 62
     7
 48
10.0
370
     0
100
AcDbTrace
 10
1558.3910565152
 20
1824.7842385636
 30
0.0
 11
1553.3110565152
 21
1791.7642385636
 31
0.0
 12
1563.4710565152
 22
1791.7642385636
 32
0.0
 13
1563.4710565152
 23
1791.7642385636
 33
0.0
  0
SOLID
  5
1A1
330
19D
100
AcDbEntity
  8
0
  6
Continuous
 62
     7
 48
10.0
370
     0
100
AcDbTrace
 10
1558.3910565152
 20
1100.9439323274
 30
0.0
 11
1563.4710565152
 21
1133.9639323274
 31
0.0
 12
1553.3110565152
 22
1133.9639323274
 32
0.0
 13
1553.3110565152
 23
1133.9639323274
 33
0.0
  0
LINE
  5
1A2
330
19D
100
AcDbEntity
  8
0
  6
Continuous
 62
     7
 48
10.0
370
     0
100
AcDbLine
 10
1174.0850925857
 20
1824.7842385636
 30
0.0
 11
1568.3910565152
 21
1824.7842385636
 31
0.0
  0
LINE
  5
1A3
330
19D
100
AcDbEntity
  8
0
  6
Continuous
 62
     7
 48
10.0
370
     0
100
AcDbLine
 10
1210.3910565153
 20
1100.9439323274
 30
0.0
 11
1568.3910565152
 21
1100.9439323274
 31
0.0
  0
LINE
  5
1A4
330
19D
100
AcDbEntity
  8
0
  6
Continuous
 62
     7
 48
10.0
370
     0
100
AcDbLine
 10
1558.3910565152
 20
1824.7842385636
 30
0.0
 11
1558.3910565152
 21
1100.9439323274
 31
0.0
  0
MTEXT
  5
1A5
330
19D
100
AcDbEntity
  8
0
  6
Continuous
 62
     7
 48
10.0
370
     0
100
AcDbMText
 10
1513.2736873694
 20
1363.615201907
 30
0.0
 40
35.0
 41
0.0
 46
0.0
 71
     1
 72
     1
  1
724
  7
SLDTEXTSTYLE0
 11
-7.044195017643634E-15
 21
1.0
 31
0.0
 73
     1
 44
1.0
  0
ENDBLK
  5
218
330
19D
100
AcDbEntity
  8
0
100
AcDbBlockEnd
  0
BLOCK
  5
219
330
1A8
100
AcDbEntity
  8
0
100
AcDbBlockBegin
  2
*D3
 70
     1
 10
0.0
 20
0.0
 30
0.0
  3
*D3
  1

  0
SOLID
  5
1AB
330
1A8
100
AcDbEntity
  8
0
  6
Continuous
 62
     7
 48
10.0
370
     0
100
AcDbTrace
 10
763.3206874779
 20
1655.491053482
 30
0.0
 11
758.2406874779
 21
1622.471053482
 31
0.0
 12
768.4006874779
 22
1622.471053482
 32
0.0
 13
768.4006874779
 23
1622.471053482
 33
0.0
  0
SOLID
  5
1AC
330
1A8
100
AcDbEntity
  8
0
  6
Continuous
 62
     7
 48
10.0
370
     0
100
AcDbTrace
 10
763.3206874779
 20
1105.491053482
 30
0.0
 11
768.4006874779
 21
1138.511053482
 31
0.0
 12
758.2406874779
 22
1138.511053482
 32
0.0
 13
758.2406874779
 23
1138.511053482
 33
0.0
  0
LINE
  5
1AD
330
1A8
100
AcDbEntity
  8
0
  6
Continuous
 62
     7
 48
10.0
370
     0
100
AcDbLine
 10
1081.3910565153
 20
1655.491053482
 30
0.0
 11
753.3206874779
 21
1655.491053482
 31
0.0
  0
LINE
  5
1AE
330
1A8
100
AcDbEntity
  8
0
  6
Continuous
 62
     7
 48
10.0
370
     0
100
AcDbLine
 10
1081.3910565153
 20
1105.491053482
 30
0.0
 11
753.3206874779
 21
1105.491053482
 31
0.0
  0
LINE
  5
1AF
330
1A8
100
AcDbEntity
  8
0
  6
Continuous
 62
     7
 48
10.0
370
     0
100
AcDbLine
 10
763.3206874779
 20
1655.491053482
 30
0.0
 11
763.3206874779
 21
1105.491053482
 31
0.0
  0
MTEXT
  5
1B0
330
1A8
100
AcDbEntity
  8
0
  6
Continuous
 62
     7
 48
10.0
370
     0
100
AcDbMText
 10
718.2033183321
 20
1369.4565030207
 30
0.0
 40
35.0
 41
0.0
 46
0.0
 71
     1
 72
     1
  1
550
  7
SLDTEXTSTYLE0
 11
-7.044195017643634E-15
 21
1.0
 31
0.0
 73
     1
 44
1.0
  0
ENDBLK
  5
21A
330
1A8
100
AcDbEntity
  8
0
100
AcDbBlockEnd
  0
BLOCK
  5
21B
330
1B3
100
AcDbEntity
  8
0
100
AcDbBlockBegin
  2
*D4
 70
     1
 10
0.0
 20
0.0
 30
0.0
  3
*D4
  1

  0
SOLID
  5
1B6
330
1B3
100
AcDbEntity
  8
0
  6
Continuous
 62
     7
 48
10.0
370
     0
100
AcDbTrace
 10
1278.3910565152
 20
939.2986797029
 30
0.0
 11
1311.4110565152
 21
934.2186797029
 31
0.0
 12
1311.4110565152
 22
944.3786797029
 32
0.0
 13
1311.4110565152
 23
944.3786797029
 33
0.0
  0
SOLID
  5
1B7
330
1B3
100
AcDbEntity
  8
0
  6
Continuous
 62
     7
 48
10.0
370
     0
100
AcDbTrace
 10
1008.3910565153
 20
939.2986797029
 30
0.0
 11
975.3710565153
 21
944.3786797029
 31
0.0
 12
975.3710565153
 22
934.2186797029
 32
0.0
 13
975.3710565153
 23
934.2186797029
 33
0.0
  0
LINE
  5
1B8
330
1B3
100
AcDbEntity
  8
0
  6
Continuous
 62
     7
 48
10.0
370
     0
100
AcDbLine
 10
1278.3910565152
 20
1237.3525754416
 30
0.0
 11
1278.3910565152
 21
929.2986797029
 31
0.0
  0
LINE
  5
1B9
330
1B3
100
AcDbEntity
  8
0
  6
Continuous
 62
     7
 48
10.0
370
     0
100
AcDbLine
 10
1008.3910565153
 20
1237.3525754416
 30
0.0
 11
1008.3910565153
 21
929.2986797029
 31
0.0
  0
LINE
  5
1BA
330
1B3
100
AcDbEntity
  8
0
  6
Continuous
 62
     7
 48
10.0
370
     0
100
AcDbLine
 10
1278.3910565152
 20
939.2986797029
 30
0.0
 11
1341.8910565152
 21
939.2986797029
 31
0.0
  0
LINE
  5
1BB
330
1B3
100
AcDbEntity
  8
0
  6
Continuous
 62
     7
 48
10.0
370
     0
100
AcDbLine
 10
1278.3910565152
 20
939.2986797029
 30
0.0
 11
1008.3910565153
 21
939.2986797029
 31
0.0
  0
LINE
  5
1BC
330
1B3
100
AcDbEntity
  8
0
  6
Continuous
 62
     7
 48
10.0
370
     0
100
AcDbLine
 10
1008.3910565153
 20
939.2986797029
 30
0.0
 11
944.8910565153
 21
939.2986797029
 31
0.0
  0
MTEXT
  5
1BD
330
1B3
100
AcDbEntity
  8
0
  6
Continuous
 62
     7
 48
10.0
370
     0
100
AcDbMText
 10
1062.1993704141
 20
984.4160505949
 30
0.0
 40
35.0
 41
0.0
 46
0.0
 71
     1
 72
     1
  1
%%c
  7
SLDTEXTSTYLE0
 73
     1
 44
1.0
  0
MTEXT
  5
1BE
330
1B3
100
AcDbEntity
  8
0
  6
Continuous
 62
     7
 48
10.0
370
     0
100
AcDbMText
 10
1114.970402701
 20
984.4160488487
 30
0.0
 40
35.0
 41
0.0
 46
0.0
 71
     1
 72
     1
  1
270
  7
SLDTEXTSTYLE0
 73
     1
 44
1.0
  0
ENDBLK
  5
21C
330
1B3
100
AcDbEntity
  8
0
100
AcDbBlockEnd
  0
BLOCK
  5
21D
330
1C0
100
AcDbEntity
  8
0
100
AcDbBlockBegin
  2
*D5
 70
     1
 10
0.0
 20
0.0
 30
0.0
  3
*D5
  1

  0
SOLID
  5
1C3
330
1C0
100
AcDbEntity
  8
0
  6
Continuous
 62
     7
 48
10.0
370
     0
100
AcDbTrace
 10
1213.3910565153
 20
2544.2254629609
 30
0.0
 11
1246.4110565153
 21
2539.1454629609
 31
0.0
 12
1246.4110565153
 22
2549.3054629609
 32
0.0
 13
1246.4110565153
 23
2549.3054629609
 33
0.0
  0
SOLID
  5
1C4
330
1C0
100
AcDbEntity
  8
0
  6
Continuous
 62
     7
 48
10.0
370
     0
100
AcDbTrace
 10
1073.3910565153
 20
2544.2254629609
 30
0.0
 11
1040.3710565153
 21
2549.3054629609
 31
0.0
 12
1040.3710565153
 22
2539.1454629609
 32
0.0
 13
1040.3710565153
 23
2539.1454629609
 33
0.0
  0
LINE
  5
1C5
330
1C0
100
AcDbEntity
  8
0
  6
Continuous
 62
     7
 48
10.0
370
     0
100
AcDbLine
 10
1213.3910565153
 20
2459.7145046636
 30
0.0
 11
1213.3910565153
 21
2554.2254629609
 31
0.0
  0
LINE
  5
1C6
330
1C0
100
AcDbEntity
  8
0
  6
Continuous
 62
     7
 48
10.0
370
     0
100
AcDbLine
 10
1073.3910565153
 20
2459.7145046636
 30
0.0
 11
1073.3910565153
 21
2554.2254629609
 31
0.0
  0
LINE
  5
1C7
330
1C0
100
AcDbEntity
  8
0
  6
Continuous
 62
     7
 48
10.0
370
     0
100
AcDbLine
 10
1213.3910565153
 20
2544.2254629609
 30
0.0
 11
1276.8910565153
 21
2544.2254629609
 31
0.0
  0
LINE
  5
1C8
330
1C0
100
AcDbEntity
  8
0
  6
Continuous
 62
     7
 48
10.0
370
     0
100
AcDbLine
 10
1213.3910565153
 20
2544.2254629609
 30
0.0
 11
1073.3910565153
 21
2544.2254629609
 31
0.0
  0
LINE
  5
1C9
330
1C0
100
AcDbEntity
  8
0
  6
Continuous
 62
     7
 48
10.0
370
     0
100
AcDbLine
 10
1073.3910565153
 20
2544.2254629609
 30
0.0
 11
1009.8910565153
 21
2544.2254629609
 31
0.0
  0
MTEXT
  5
1CA
330
1C0
100
AcDbEntity
  8
0
  6
Continuous
 62
     7
 48
10.0
370
     0
100
AcDbMText
 10
1061.3579092131
 20
2589.3428338529
 30
0.0
 40
35.0
 41
0.0
 46
0.0
 71
     1
 72
     1
  1
%%c
  7
SLDTEXTSTYLE0
 73
     1
 44
1.0
  0
MTEXT
  5
1CB
330
1C0
100
AcDbEntity
  8
0
  6
Continuous
 62
     7
 48
10.0
370
     0
100
AcDbMText
 10
1114.1289415
 20
2589.3428321067
 30
0.0
 40
35.0
 41
0.0
 46
0.0
 71
     1
 72
     1
  1
140
  7
SLDTEXTSTYLE0
 73
     1
 44
1.0
  0
ENDBLK
  5
21E
330
1C0
100
AcDbEntity
  8
0
100
AcDbBlockEnd
  0
BLOCK
  5
21F
330
1CD
100
AcDbEntity
  8
0
100
AcDbBlockBegin
  2
*D6
 70
     1
 10
0.0
 20
0.0
 30
0.0
  3
*D6
  1

  0
SOLID
  5
1D0
330
1CD
100
AcDbEntity
  8
0
  6
Continuous
 62
     7
 48
10.0
370
     0
100
AcDbTrace
 10
1398.2528129309
 20
2409.7145046636
 30
0.0
 11
1393.1728129309
 21
2376.6945046636
 31
0.0
 12
1403.3328129309
 22
2376.6945046636
 32
0.0
 13
1403.3328129309
 23
2376.6945046636
 33
0.0
  0
SOLID
  5
1D1
330
1CD
100
AcDbEntity
  8
0
  6
Continuous
 62
     7
 48
10.0
370
     0
100
AcDbTrace
 10
1398.2528129309
 20
2449.7145046636
 30
0.0
 11
1403.3328129309
 21
2482.7345046636
 31
0.0
 12
1393.1728129309
 22
2482.7345046636
 32
0.0
 13
1393.1728129309
 23
2482.7345046636
 33
0.0
  0
LINE
  5
1D2
330
1CD
100
AcDbEntity
  8
0
  6
Continuous
 62
     7
 48
10.0
370
     0
100
AcDbLine
 10
1220.3910565153
 20
2409.7145046636
 30
0.0
 11
1408.2528129309
 21
2409.7145046636
 31
0.0
  0
LINE
  5
1D3
330
1CD
100
AcDbEntity
  8
0
  6
Continuous
 62
     7
 48
10.0
370
     0
100
AcDbLine
 10
1220.8910565153
 20
2449.7145046636
 30
0.0
 11
1408.2528129309
 21
2449.7145046636
 31
0.0
  0
LINE
  5
1D4
330
1CD
100
AcDbEntity
  8
0
  6
Continuous
 62
     7
 48
10.0
370
     0
100
AcDbLine
 10
1398.2528129309
 20
2409.7145046636
 30
0.0
 11
1398.2528129309
 21
2346.2145046636
 31
0.0
  0
LINE
  5
1D5
330
1CD
100
AcDbEntity
  8
0
  6
Continuous
 62
     7
 48
10.0
370
     0
100
AcDbLine
 10
1398.2528129309
 20
2409.7145046636
 30
0.0
 11
1398.2528129309
 21
2449.7145046636
 31
0.0
  0
LINE
  5
1D6
330
1CD
100
AcDbEntity
  8
0
  6
Continuous
 62
     7
 48
10.0
370
     0
100
AcDbLine
 10
1398.2528129309
 20
2449.7145046636
 30
0.0
 11
1398.2528129309
 21
2513.2145046636
 31
0.0
  0
MTEXT
  5
1D7
330
1CD
100
AcDbEntity
  8
0
  6
Continuous
 62
     7
 48
10.0
370
     0
100
AcDbMText
 10
1353.1354437851
 20
2404.2365196959
 30
0.0
 40
35.0
 41
0.0
 46
0.0
 71
     1
 72
     1
  1
40
  7
SLDTEXTSTYLE0
 11
6.123233995736766E-17
 21
1.0
 31
0.0
 73
     1
 44
1.0
  0
ENDBLK
  5
220
330
1CD
100
AcDbEntity
  8
0
100
AcDbBlockEnd
  0
BLOCK
  5
221
330
1D9
100
AcDbEntity
  8
0
100
AcDbBlockBegin
  2
*D7
 70
     1
 10
0.0
 20
0.0
 30
0.0
  3
*D7
  1

  0
SOLID
  5
1DC
330
1D9
100
AcDbEntity
  8
0
  6
Continuous
 62
     7
 48
10.0
370
     0
100
AcDbTrace
 10
763.3206874779
 20
1655.491053482
 30
0.0
 11
768.4006874779
 21
1688.511053482
 31
0.0
 12
758.2406874779
 22
1688.511053482
 32
0.0
 13
758.2406874779
 23
1688.511053482
 33
0.0
  0
SOLID
  5
1DD
330
1D9
100
AcDbEntity
  8
0
  6
Continuous
 62
     7
 48
10.0
370
     0
100
AcDbTrace
 10
763.3206874779
 20
2409.7145046636
 30
0.0
 11
758.2406874779
 21
2376.6945046636
 31
0.0
 12
768.4006874779
 22
2376.6945046636
 32
0.0
 13
768.4006874779
 23
2376.6945046636
 33
0.0
  0
LINE
  5
1DE
330
1D9
100
AcDbEntity
  8
0
  6
Continuous
 62
     7
 48
10.0
370
     0
100
AcDbLine
 10
1081.3910565153
 20
1655.491053482
 30
0.0
 11
753.3206874779
 21
1655.491053482
 31
0.0
  0
LINE
  5
1DF
330
1D9
100
AcDbEntity
  8
0
  6
Continuous
 62
     7
 48
10.0
370
     0
100
AcDbLine
 10
1066.3910565153
 20
2409.7145046636
 30
0.0
 11
753.3206874779
 21
2409.7145046636
 31
0.0
  0
LINE
  5
1E0
330
1D9
100
AcDbEntity
  8
0
  6
Continuous
 62
     7
 48
10.0
370
     0
100
AcDbLine
 10
763.3206874779
 20
1655.491053482
 30
0.0
 11
763.3206874779
 21
2409.7145046636
 31
0.0
  0
MTEXT
  5
1E1
330
1D9
100
AcDbEntity
  8
0
  6
Continuous
 62
     7
 48
10.0
370
     0
100
AcDbMText
 10
718.2033183321
 20
1933.1091556101
 30
0.0
 40
35.0
 41
0.0
 46
0.0
 71
     1
 72
     1
  1
MAX.2,5M
  7
SLDTEXTSTYLE0
 11
6.123233995736766E-17
 21
1.0
 31
0.0
 73
     1
 44
1.0
  0
ENDBLK
  5
222
330
1D9
100
AcDbEntity
  8
0
100
AcDbBlockEnd
  0
BLOCK
  5
223
330
1E3
100
AcDbEntity
  8
0
100
AcDbBlockBegin
  2
*D8
 70
     1
 10
0.0
 20
0.0
 30
0.0
  3
*D8
  1

  0
SOLID
  5
1E6
330
1E3
100
AcDbEntity
  8
0
  6
Continuous
 62
     7
 48
10.0
370
     0
100
AcDbTrace
 10
1201.3910565153
 20
1012.8652008544
 30
0.0
 11
1234.4110565153
 21
1007.7852008544
 31
0.0
 12
1234.4110565153
 22
1017.9452008544
 32
0.0
 13
1234.4110565153
 23
1017.9452008544
 33
0.0
  0
SOLID
  5
1E7
330
1E3
100
AcDbEntity
  8
0
  6
Continuous
 62
     7
 48
10.0
370
     0
100
AcDbTrace
 10
1085.3910565153
 20
1012.8652008544
 30
0.0
 11
1052.3710565153
 21
1017.9452008544
 31
0.0
 12
1052.3710565153
 22
1007.7852008544
 32
0.0
 13
1052.3710565153
 23
1007.7852008544
 33
0.0
  0
LINE
  5
1E8
330
1E3
100
AcDbEntity
  8
0
  6
Continuous
 62
     7
 48
10.0
370
     0
100
AcDbLine
 10
1201.3910565153
 20
1091.9439323274
 30
0.0
 11
1201.3910565153
 21
1002.8652008544
 31
0.0
  0
LINE
  5
1E9
330
1E3
100
AcDbEntity
  8
0
  6
Continuous
 62
     7
 48
10.0
370
     0
100
AcDbLine
 10
1085.3910565153
 20
1091.9439323274
 30
0.0
 11
1085.3910565153
 21
1002.8652008544
 31
0.0
  0
LINE
  5
1EA
330
1E3
100
AcDbEntity
  8
0
  6
Continuous
 62
     7
 48
10.0
370
     0
100
AcDbLine
 10
1201.3910565153
 20
1012.8652008544
 30
0.0
 11
1264.8910565153
 21
1012.8652008544
 31
0.0
  0
LINE
  5
1EB
330
1E3
100
AcDbEntity
  8
0
  6
Continuous
 62
     7
 48
10.0
370
     0
100
AcDbLine
 10
1201.3910565153
 20
1012.8652008544
 30
0.0
 11
1085.3910565153
 21
1012.8652008544
 31
0.0
  0
LINE
  5
1EC
330
1E3
100
AcDbEntity
  8
0
  6
Continuous
 62
     7
 48
10.0
370
     0
100
AcDbLine
 10
1085.3910565153
 20
1012.8652008544
 30
0.0
 11
1021.8910565153
 21
1012.8652008544
 31
0.0
  0
MTEXT
  5
1ED
330
1E3
100
AcDbEntity
  8
0
  6
Continuous
 62
     7
 48
10.0
370
     0
100
AcDbMText
 10
1061.3579092131
 20
1057.9825717464
 30
0.0
 40
35.0
 41
0.0
 46
0.0
 71
     1
 72
     1
  1
%%c
  7
SLDTEXTSTYLE0
 73
     1
 44
1.0
  0
MTEXT
  5
1EE
330
1E3
100
AcDbEntity
  8
0
  6
Continuous
 62
     7
 48
10.0
370
     0
100
AcDbMText
 10
1114.1289415
 20
1057.9825700002
 30
0.0
 40
35.0
 41
0.0
 46
0.0
 71
     1
 72
     1
  1
116
  7
SLDTEXTSTYLE0
 73
     1
 44
1.0
  0
ENDBLK
  5
224
330
1E3
100
AcDbEntity
  8
0
100
AcDbBlockEnd
  0
ENDSEC
  0
SECTION
  2
ENTITIES
  0
ARC
  5
226
330
1F
100
AcDbEntity
  8
0
  6
Continuous
 62
     7
 48
100.0
370
    15
100
AcDbCircle
 10
1154.4044902994
 20
2408.4645102197
 30
0.0
 40
1.500010974877285
100
AcDbArc
 50
270.0004098149
 51
359.9999814966
  0
ARC
  5
227
330
1F
100
AcDbEntity
  8
0
  6
Continuous
 62
     7
 48
100.0
370
    15
100
AcDbCircle
 10
1140.404510996
 20
2408.4645094247
 30
0.0
 40
1.500010179934528
100
AcDbArc
 50
179.9999881392
 51
269.9996116558
  0
LINE
  5
228
330
1F
100
AcDbEntity
  8
0
  6
Continuous
 62
     7
 48
10.0
370
    15
100
AcDbLine
 10
1155.9045012742
 20
2408.4645097352
 30
0.0
 11
1155.9045012742
 21
2409.7145085431
 31
0.0
  0
LINE
  5
229
330
1F
100
AcDbEntity
  8
0
  6
Continuous
 62
     7
 48
10.0
370
    15
100
AcDbLine
 10
1138.904500816
 20
2409.7145085431
 30
0.0
 11
1138.904500816
 21
2408.4645097352
 31
0.0
  0
LINE
  5
22A
330
1F
100
AcDbEntity
  8
0
  6
Continuous
 62
     7
 48
10.0
370
    15
100
AcDbLine
 10
1137.5910565891
 20
2409.7145085431
 30
0.0
 11
1137.3910564631
 21
2409.5145051576
 31
0.0
  0
LINE
  5
22B
330
1F
100
AcDbEntity
  8
0
  6
Continuous
 62
     7
 48
10.0
370
    15
100
AcDbLine
 10
1137.3910564631
 20
2409.5145051576
 30
0.0
 11
1137.3910564631
 21
2400.2145116426
 31
0.0
  0
LINE
  5
22C
330
1F
100
AcDbEntity
  8
0
  6
Continuous
 62
     7
 48
10.0
370
    15
100
AcDbLine
 10
1149.3910565674
 20
2400.2145116426
 30
0.0
 11
1149.3910565674
 21
2406.9644992448
 31
0.0
  0
LINE
  5
BB
330
1F
100
AcDbEntity
  8
0
  6
Continuous
 62
     7
 48
10.0
370
    15
100
AcDbLine
 10
1137.3910564631
 20
2400.2145116426
 30
0.0
 11
1137.8910565451
 21
2399.7145180799
 31
0.0
  0
LINE
  5
BC
330
1F
100
AcDbEntity
  8
0
  6
Continuous
 62
     7
 48
10.0
370
    15
100
AcDbLine
 10
1148.8910564855
 20
2399.7145180799
 30
0.0
 11
1149.3910565674
 21
2400.2145116426
 31
0.0
  0
LINE
  5
BD
330
1F
100
AcDbEntity
  8
0
  6
Continuous
 62
     7
 48
10.0
370
    15
100
AcDbLine
 10
1213.3910568133
 20
2412.7144997217
 30
0.0
 11
1213.3910568133
 21
2449.7145001985
 31
0.0
  0
LINE
  5
BE
330
1F
100
AcDbEntity
  8
0
  6
Continuous
 62
     7
 48
10.0
370
    15
100
AcDbLine
 10
1073.3910562173
 20
2449.7145001985
 30
0.0
 11
1073.3910562173
 21
2412.7144997217
 31
0.0
  0
ARC
  5
BF
330
1F
100
AcDbEntity
  8
0
  6
Continuous
 62
     7
 48
100.0
370
    15
100
AcDbCircle
 10
1210.3910920985
 20
2412.7144732579
 30
0.0
 40
2.999964714915018
100
AcDbArc
 50
269.9993522771001
 51
0.0005054271
  0
ARC
  5
C0
330
1F
100
AcDbEntity
  8
0
  6
Continuous
 62
     7
 48
100.0
370
    15
100
AcDbCircle
 10
1076.3910209321
 20
2412.7144732579
 30
0.0
 40
2.999964714915018
100
AcDbArc
 50
179.9994945729
 51
270.0006477229
  0
SPLINE
  5
C1
330
1F
100
AcDbEntity
  8
0
  6
Continuous
 62
     7
 48
10.0
370
    15
100
AcDbSpline
210
0.0
220
0.0
230
1.0
 70
     8
 71
     3
 72
    24
 73
    20
 74
     0
 42
0.00000001
 43
0.00000001
 40
0.0
 40
0.0
 40
0.0
 40
0.0
 40
0.0092995797936302
 40
0.0932900616124685
 40
0.1660095041185022
 40
0.2289108294846668
 40
0.299774541423236
 40
0.3583180966045443
 40
0.4069785944292454
 40
0.473072517496815
 40
0.5248230671875412
 40
0.5684697590378816
 40
0.6083503448846298
 40
0.6472186493206331
 40
0.6864117073601304
 40
0.7759462805203554
 40
0.8681066052404101
 40
0.9865503251078307
 40
1.0
 40
1.0
 40
1.0
 40
1.0
 10
1144.292968330455
 20
1685.284275303018
 30
0.0
 10
1144.296249482315
 20
1685.482718842204
 30
0.0
 10
1144.329164825371
 20
1687.473433520514
 30
0.0
 10
1144.381355408275
 20
1691.016009737829
 30
0.0
 10
1144.445937171422
 20
1695.70248573315
 30
0.0
 10
1144.499083902637
 20
1700.108937626081
 30
0.0
 10
1144.540870485766
 20
1704.212958299936
 30
0.0
 10
1144.57060230412
 20
1708.013149168454
 30
0.0
 10
1144.590983349465
 20
1711.711603268828
 30
0.0
 10
1144.600700641147
 20
1715.265127549006
 30
0.0
 10
1144.602765711011
 20
1718.71165389862
 30
0.0
 10
1144.606805166024
 20
1721.598738770746
 30
0.0
 10
1144.620303784701
 20
1724.210866498739
 30
0.0
 10
1144.646651764494
 20
1726.727848700487
 30
0.0
 10
1144.702222763338
 20
1730.304227379028
 30
0.0
 10
1144.817286756212
 20
1735.017271471155
 30
0.0
 10
1145.085648102446
 20
1741.41710641291
 30
0.0
 10
1145.344400960369
 20
1746.192924085873
 30
0.0
 10
1145.577049826683
 20
1748.998165020705
 30
0.0
 10
1145.600773923115
 20
1749.284226188791
 30
0.0
  0
SPLINE
  5
C2
330
1F
100
AcDbEntity
  8
0
  6
Continuous
 62
     7
 48
10.0
370
    15
100
AcDbSpline
210
0.0
220
0.0
230
1.0
 70
     8
 71
     3
 72
    13
 73
     9
 74
     0
 42
0.00000001
 43
0.00000001
 40
0.0
 40
0.0
 40
0.0
 40
0.0
 40
0.0370878703984855
 40
0.1816597993679895
 40
0.448418977757867
 40
0.7184304235698106
 40
0.9842831497365009
 40
1.0
 40
1.0
 40
1.0
 40
1.0
 10
1146.010544214414
 20
1754.284221420419
 30
0.0
 10
1146.067761801705
 20
1754.995357569762
 30
0.0
 10
1146.3480188053
 20
1758.478567816806
 30
0.0
 10
1147.227124436919
 20
1767.060285110844
 30
0.0
 10
1148.686449348336
 20
1780.085097541647
 30
0.0
 10
1150.559018739355
 20
1795.410749562717
 30
0.0
 10
1151.892753884035
 20
1805.936869475258
 30
0.0
 10
1152.550726263582
 20
1811.313068376058
 30
0.0
 10
1152.587453432397
 20
1811.613160858285
 30
0.0
  0
SPLINE
  5
C3
330
1F
100
AcDbEntity
  8
0
  6
Continuous
 62
     7
 48
10.0
370
    15
100
AcDbSpline
210
0.0
220
0.0
230
1.0
 70
     8
 71
     3
 72
    51
 73
    47
 74
     0
 42
0.00000001
 43
0.00000001
 40
0.0
 40
0.0
 40
0.0
 40
0.0
 40
0.026630289453049
 40
0.0730556789239906
 40
0.1195485073330809
 40
0.1507553502050295
 40
0.1818712900525336
 40
0.2130960602352013
 40
0.2443355168784875
 40
0.2754603945072266
 40
0.3066265177348784
 40
0.3377943595654845
 40
0.368803253159097
 40
0.3979468764929271
 40
0.4271630438307912
 40
0.456170753557174
 40
0.4849980063560376
 40
0.5137063931370541
 40
0.5371376238313547
 40
0.5601051154684269
 40
0.5828520882497767
 40
0.6055992989845109
 40
0.6281371882659651
 40
0.6505647731932366
 40
0.6731557922050082
 40
0.6955796660843108
 40
0.7180322190563967
 40
0.7400620210309925
 40
0.7606203519925095
 40
0.7794541519844782
 40
0.7870655923567214
 40
0.7955664340012263
 40
0.8052648648802399
 40
0.8162517468620112
 40
0.828634809455873
 40
0.8425409792725009
 40
0.8581190516413927
 40
0.8716129841291366
 40
0.8863358552285956
 40
0.9023948735597804
 40
0.9199099466597364
 40
0.9390148712823653
 40
0.955237550025409
 40
0.9726122833969392
 40
0.9912246565776138
 40
1.0
 40
1.0
 40
1.0
 40
1.0
 10
1153.90123852344
 20
1822.340387592447
 30
0.0
 10
1154.545078654219
 20
1827.540738445428
 30
0.0
 10
1156.311344768432
 20
1841.807018309842
 30
0.0
 10
1158.948841349615
 20
1865.183058979022
 30
0.0
 10
1161.312994447063
 20
1889.494004787331
 30
0.0
 10
1162.984789637109
 20
1910.841231396367
 30
0.0
 10
1164.102493552474
 20
1929.215694382789
 30
0.0
 10
1164.848468069224
 20
1947.615787423071
 30
0.0
 10
1165.166127283801
 20
1966.030505643298
 30
0.0
 10
1164.993836462862
 20
1984.436040951612
 30
0.0
 10
1164.266420094183
 20
2002.815084596759
 30
0.0
 10
1162.884870397719
 20
2021.133721494182
 30
0.0
 10
1160.999388829825
 20
2039.005604952991
 30
0.0
 10
1158.778031824803
 20
2056.450694546134
 30
0.0
 10
1156.364377659716
 20
2073.472009467512
 30
0.0
 10
1153.849615358598
 20
2090.41546696654
 30
0.0
 10
1151.400906662567
 20
2107.267611067296
 30
0.0
 10
1149.345081366582
 20
2123.06799048636
 30
0.0
 10
1147.907178198439
 20
2137.779685169479
 30
0.0
 10
1147.099621923077
 20
2151.365060867563
 30
0.0
 10
1146.842481171481
 20
2164.83764798341
 30
0.0
 10
1147.151628024918
 20
2178.224719736459
 30
0.0
 10
1148.000656024213
 20
2191.524799049736
 30
0.0
 10
1149.323310114078
 20
2204.754238122316
 30
0.0
 10
1151.01467637536
 20
2217.91788154842
 30
0.0
 10
1152.951056523191
 20
2231.051850851729
 30
0.0
 10
1154.988023955497
 20
2244.058474994521
 30
0.0
 10
1156.979495069357
 20
2256.700641041562
 30
0.0
 10
1158.803344550449
 20
2268.648310825673
 30
0.0
 10
1160.128170561539
 20
2277.801955476879
 30
0.0
 10
1161.068559989511
 20
2284.613705464489
 30
0.0
 10
1161.74191072854
 20
2289.647663411999
 30
0.0
 10
1162.474821948758
 20
2295.343693389539
 30
0.0
 10
1163.266981683176
 20
2301.802203302093
 30
0.0
 10
1164.109732175148
 20
2309.088516689591
 30
0.0
 10
1164.991675953064
 20
2317.279498586516
 30
0.0
 10
1165.822198635939
 20
2325.695564214224
 30
0.0
 10
1166.59389178013
 20
2334.278549392694
 30
0.0
 10
1167.301960807036
 20
2342.961990982923
 30
0.0
 10
1167.990556577172
 20
2352.44053551761
 30
0.0
 10
1168.645341171444
 20
2362.785644224633
 30
0.0
 10
1169.200593545624
 20
2373.168830838906
 30
0.0
 10
1169.662929156967
 20
2383.528889281487
 30
0.0
 10
1170.032620076171
 20
2393.795611774768
 30
0.0
 10
1170.292420377878
 20
2402.599901144483
 30
0.0
 10
1170.392358574916
 20
2407.988074906313
 30
0.0
 10
1170.424379937367
 20
2409.714508543145
 30
0.0
  0
SPLINE
  5
C4
330
1F
100
AcDbEntity
  8
0
  6
Continuous
 62
     7
 48
10.0
370
    15
100
AcDbSpline
210
0.0
220
0.0
230
1.0
 70
     8
 71
     3
 72
    25
 73
    21
 74
     0
 42
0.00000001
 43
0.00000001
 40
0.0
 40
0.0
 40
0.0
 40
0.0
 40
0.0358679892682899
 40
0.0975129393065805
 40
0.1543949936246478
 40
0.2068785782860597
 40
0.2695045914729921
 40
0.3258190743273526
 40
0.3764058365221526
 40
0.4247288986697874
 40
0.4676291323476655
 40
0.5055705072032153
 40
0.5389569326253463
 40
0.5707387944751782
 40
0.6030321157302261
 40
0.6808093047469008
 40
0.7603833968168842
 40
0.8559681457860224
 40
0.9513247562466741
 40
1.0
 40
1.0
 40
1.0
 40
1.0
 10
1162.422780476526
 20
2409.714508543145
 30
0.0
 10
1162.380105284215
 20
2407.492711578769
 30
0.0
 10
1162.264085860696
 20
2401.452396608275
 30
0.0
 10
1161.969181482729
 20
2391.891177910654
 30
0.0
 10
1161.56670760731
 20
2381.303815263834
 30
0.0
 10
1161.066787945678
 20
2370.659689262673
 30
0.0
 10
1160.470173490273
 20
2360.055711536556
 30
0.0
 10
1159.77306077615
 20
2349.575661714513
 30
0.0
 10
1159.043435340606
 20
2339.98634602759
 30
0.0
 10
1158.297276619125
 20
2331.232145021899
 30
0.0
 10
1157.54928862878
 20
2323.264711722573
 30
0.0
 10
1156.833527853596
 20
2316.223955686478
 30
0.0
 10
1156.144068698647
 20
2309.873083208124
 30
0.0
 10
1155.45511623983
 20
2303.874257033495
 30
0.0
 10
1154.399707725414
 20
2295.149373495638
 30
0.0
 10
1152.870943357093
 20
2283.499425839984
 30
0.0
 10
1150.628082062582
 20
2267.989796293165
 30
0.0
 10
1148.068663503691
 20
2251.426585739497
 30
0.0
 10
1145.704621594668
 20
2236.770042374181
 30
0.0
 10
1144.442565531757
 20
2227.936145056097
 30
0.0
 10
1144.016056501323
 20
2224.950749168527
 30
0.0
  0
SPLINE
  5
C5
330
1F
100
AcDbEntity
  8
0
  6
Continuous
 62
     7
 48
10.0
370
    15
100
AcDbSpline
210
0.0
220
0.0
230
1.0
 70
     8
 71
     3
 72
    15
 73
    11
 74
     0
 42
0.00000001
 43
0.00000001
 40
0.0
 40
0.0
 40
0.0
 40
0.0
 40
0.1279998887115661
 40
0.2575715658782062
 40
0.3867957531851017
 40
0.5164564191078137
 40
0.6477473969425604
 40
0.7805234365314762
 40
0.9151374651758222
 40
1.0
 40
1.0
 40
1.0
 40
1.0
 10
1142.766056529262
 20
2216.325420627725
 30
0.0
 10
1142.198648934222
 20
2211.894290857729
 30
0.0
 10
1141.056866201309
 20
2202.977618781245
 30
0.0
 10
1139.815662020116
 20
2189.532728019719
 30
0.0
 10
1139.0527588722
 20
2175.99421714446
 30
0.0
 10
1138.85268519233
 20
2162.374907505781
 30
0.0
 10
1139.21781967083
 20
2148.63514144558
 30
0.0
 10
1140.143627050105
 20
2134.74945097711
 30
0.0
 10
1141.378679470142
 20
2122.515423433312
 30
0.0
 10
1142.379197480739
 20
2114.921358032629
 30
0.0
 10
1142.766056529262
 20
2111.985046157968
 30
0.0
  0
SPLINE
  5
C6
330
1F
100
AcDbEntity
  8
0
  6
Continuous
 62
     7
 48
10.0
370
    15
100
AcDbSpline
210
0.0
220
0.0
230
1.0
 70
     8
 71
     3
 72
    23
 73
    19
 74
     0
 42
0.00000001
 43
0.00000001
 40
0.0
 40
0.0
 40
0.0
 40
0.0
 40
0.0371068957541232
 40
0.0889985583507235
 40
0.1406869331573015
 40
0.1923981460117965
 40
0.2547688006294662
 40
0.3171324534887393
 40
0.3793459830889633
 40
0.441827378613781
 40
0.5044330219841395
 40
0.5826092112646947
 40
0.6610568197103617
 40
0.7394106970520409
 40
0.8175093004952172
 40
0.8958783866894393
 40
0.9736761648299657
 40
1.0
 40
1.0
 40
1.0
 40
1.0
 10
1144.016056501323
 20
2102.651733646524
 30
0.0
 10
1144.498194154954
 20
2099.229516300965
 30
0.0
 10
1145.654571028518
 20
2091.021542986901
 30
0.0
 10
1147.590484449792
 20
2078.062193043618
 30
0.0
 10
1149.669599157891
 20
2063.749095681666
 30
0.0
 10
1151.762260415227
 20
2048.452047398067
 30
0.0
 10
1153.735174460307
 20
2032.136305338352
 30
0.0
 10
1155.413664686887
 20
2014.80348874313
 30
0.0
 10
1156.543715672094
 20
1997.414868592637
 30
0.0
 10
1157.08870649066
 20
1979.976008199037
 30
0.0
 10
1157.14438367914
 20
1961.042795298455
 30
0.0
 10
1156.631619178018
 20
1940.628071063236
 30
0.0
 10
1155.51009420315
 20
1918.769818070572
 30
0.0
 10
1153.907057832671
 20
1896.949425960802
 30
0.0
 10
1151.908943315522
 20
1875.169458313026
 30
0.0
 10
1149.590893171064
 20
1853.473798175055
 30
0.0
 10
1147.618563479883
 20
1836.591804083975
 30
0.0
 10
1146.424157150738
 20
1826.968129869195
 30
0.0
 10
1146.122189534844
 20
1824.535090217721
 30
0.0
  0
SPLINE
  5
C7
330
1F
100
AcDbEntity
  8
0
  6
Continuous
 62
     7
 48
10.0
370
    15
100
AcDbSpline
210
0.0
220
0.0
230
1.0
 70
     8
 71
     3
 72
    13
 73
     9
 74
     0
 42
0.00000001
 43
0.00000001
 40
0.0
 40
0.0
 40
0.0
 40
0.0
 40
0.0759819743749017
 40
0.4351547452901389
 40
0.6102660440202501
 40
0.7783255008366504
 40
0.9379645564413559
 40
1.0
 40
1.0
 40
1.0
 40
1.0
 10
1144.908384134078
 20
1814.706463108194
 30
0.0
 10
1144.719841514511
 20
1813.177610970838
 30
0.0
 10
1143.640043098259
 20
1804.421754494477
 30
0.0
 10
1142.089518452304
 20
1792.146957481694
 30
0.0
 10
1140.3992313148
 20
1778.00834541378
 30
0.0
 10
1139.273455284617
 20
1767.877048626681
 30
0.0
 10
1138.453247405478
 20
1760.017614166609
 30
0.0
 10
1138.092676264891
 20
1755.53787350851
 30
0.0
 10
1137.991770699636
 20
1754.284221420419
 30
0.0
  0
SPLINE
  5
C8
330
1F
100
AcDbEntity
  8
0
  6
Continuous
 62
     7
 48
10.0
370
    15
100
AcDbSpline
210
0.0
220
0.0
230
1.0
 70
     8
 71
     3
 72
    23
 73
    19
 74
     0
 42
0.00000001
 43
0.00000001
 40
0.0
 40
0.0
 40
0.0
 40
0.0
 40
0.0048962101856819
 40
0.0796311613262191
 40
0.1653739539444777
 40
0.2563095964536664
 40
0.3442383137011509
 40
0.3854944961683503
 40
0.4275594415647642
 40
0.474303395907788
 40
0.5310729689957593
 40
0.57788961145619
 40
0.6348041211923481
 40
0.704783081675019
 40
0.7678718608692303
 40
0.8418268511592989
 40
0.9284188957133646
 40
1.0
 40
1.0
 40
1.0
 40
1.0
 10
1137.578209925459
 20
1749.284226188791
 30
0.0
 10
1137.569064005939
 20
1749.174359378907
 30
0.0
 10
1137.420316267351
 20
1747.387503559721
 30
0.0
 10
1137.206853097311
 20
1743.669370251052
 30
0.0
 10
1136.920400475697
 20
1738.015692083471
 30
0.0
 10
1136.731596696002
 20
1732.060192756592
 30
0.0
 10
1136.644723275952
 20
1727.104463059736
 30
0.0
 10
1136.611834003782
 20
1723.248602212998
 30
0.0
 10
1136.603086979458
 20
1720.319970916514
 30
0.0
 10
1136.602162710966
 20
1717.042026555145
 30
0.0
 10
1136.598020387742
 20
1713.657088488072
 30
0.0
 10
1136.583974301735
 20
1710.043166952835
 30
0.0
 10
1136.558566004855
 20
1706.131868075565
 30
0.0
 10
1136.519032693603
 20
1701.854274112146
 30
0.0
 10
1136.465608308658
 20
1697.193111014595
 30
0.0
 10
1136.398405323558
 20
1692.158019136444
 30
0.0
 10
1136.320740526466
 20
1686.931835394872
 30
0.0
 10
1136.26102536016
 20
1683.370799798208
 30
0.0
 10
1136.234001319871
 20
1681.759256611001
 30
0.0
  0
LINE
  5
C9
330
1F
100
AcDbEntity
  8
0
  6
Continuous
 62
     7
 48
10.0
370
    15
100
AcDbLine
 10
1196.3910558894
 20
1103.9439623453
 30
0.0
 11
1196.3910558894
 21
1105.4439728357
 31
0.0
  0
LINE
  5
CA
330
1F
100
AcDbEntity
  8
0
  6
Continuous
 62
     7
 48
10.0
370
    15
100
AcDbLine
 10
1090.3910571411
 20
1105.4439728357
 30
0.0
 11
1090.3910571411
 21
1103.9439623453
 31
0.0
  0
LINE
  5
CB
330
1F
100
AcDbEntity
  8
0
  6
Continuous
 62
     7
 48
10.0
370
    15
100
AcDbLine
 10
1144.0160565013
 20
1824.7764294244
 30
0.0
 11
1144.0160565013
 21
2399.7145180799
 31
0.0
  0
LINE
  5
CE
330
1F
100
AcDbEntity
  8
0
  6
Continuous
 62
     7
 48
10.0
370
    15
100
AcDbLine
 10
1142.7660565293
 20
2399.7145180799
 30
0.0
 11
1142.7660565293
 21
1824.7764294244
 31
0.0
  0
ARC
  5
CF
330
1F
100
AcDbEntity
  8
0
  6
Continuous
 62
     7
 48
100.0
370
    15
100
AcDbCircle
 10
1134.8913146374
 20
1660.2841718811
 30
0.0
 40
1.999741743763102
100
AcDbArc
 50
311.4062900984
 51
0.0002307749
  0
ARC
  5
D0
330
1F
100
AcDbEntity
  8
0
  6
Continuous
 62
     7
 48
100.0
370
    15
100
AcDbCircle
 10
1151.8910634498
 20
1660.2842915406
 30
0.0
 40
2.000006803490375
100
AcDbArc
 50
180.0031972362
 51
228.5902818905
  0
ARC
  5
D1
330
1F
100
AcDbEntity
  8
0
  6
Continuous
 62
     7
 48
100.0
370
    15
100
AcDbCircle
 10
1149.3909512249
 20
1684.7841698891
 30
0.0
 40
0.5001054250062823
100
AcDbArc
 50
0.002571379
 51
89.987931178
  0
LINE
  5
D2
330
1F
100
AcDbEntity
  8
0
  6
Continuous
 62
     7
 48
10.0
370
    15
100
AcDbLine
 10
1136.8910563812
 20
1670.6236784555
 30
0.0
 11
1136.8910563812
 21
1660.2841799356
 31
0.0
  0
LINE
  5
D3
330
1F
100
AcDbEntity
  8
0
  6
Continuous
 62
     7
 48
10.0
370
    15
100
AcDbLine
 10
1149.8910566494
 20
1681.2657301523
 30
0.0
 11
1149.8910566494
 21
1684.7841923334
 31
0.0
  0
LINE
  5
D4
330
1F
100
AcDbEntity
  8
0
  6
Continuous
 62
     7
 48
10.0
370
    15
100
AcDbLine
 10
1149.8910566494
 20
1660.2841799356
 30
0.0
 11
1149.8910566494
 21
1670.6339304544
 31
0.0
  0
LINE
  5
D5
330
1F
100
AcDbEntity
  8
0
  6
Continuous
 62
     7
 48
10.0
370
    15
100
AcDbLine
 10
1128.3910568506
 20
1749.2842261888
 30
0.0
 11
1138.4931831323
 21
1749.2842261888
 31
0.0
  0
LINE
  5
D6
330
1F
100
AcDbEntity
  8
0
  6
Continuous
 62
     7
 48
10.0
370
    15
100
AcDbLine
 10
1144.6384426141
 20
1749.2842261888
 30
0.0
 11
1158.39105618
 21
1749.2842261888
 31
0.0
  0
LINE
  5
D7
330
1F
100
AcDbEntity
  8
0
  6
Continuous
 62
     7
 48
10.0
370
    15
100
AcDbLine
 10
1158.39105618
 20
1754.2842214204
 30
0.0
 11
1144.3812602135
 21
1754.2842214204
 31
0.0
  0
LINE
  5
D8
330
1F
100
AcDbEntity
  8
0
  6
Continuous
 62
     7
 48
10.0
370
    15
100
AcDbLine
 10
1139.5199492742
 20
1754.2842214204
 30
0.0
 11
1128.3910568506
 21
1754.2842214204
 31
0.0
  0
LINE
  5
D9
330
1F
100
AcDbEntity
  8
0
  6
Continuous
 62
     7
 48
10.0
370
    15
100
AcDbLine
 10
1201.3910548464
 20
1101.9439880945
 30
0.0
 11
1201.3910548464
 21
1103.9439623453
 31
0.0
  0
LINE
  5
DA
330
1F
100
AcDbEntity
  8
0
  6
Continuous
 62
     7
 48
10.0
370
    15
100
AcDbLine
 10
1085.3910581842
 20
1103.9439623453
 30
0.0
 11
1085.3910581842
 21
1101.9439880945
 31
0.0
  0
LINE
  5
DB
330
1F
100
AcDbEntity
  8
0
  6
Continuous
 62
     7
 48
10.0
370
    15
100
AcDbLine
 10
1085.3910581842
 20
1101.9439880945
 30
0.0
 11
1086.3910564855
 21
1100.9439413644
 31
0.0
  0
LINE
  5
DC
330
1F
100
AcDbEntity
  8
0
  6
Continuous
 62
     7
 48
10.0
370
    15
100
AcDbLine
 10
1200.3910565451
 20
1100.9439413644
 30
0.0
 11
1201.3910548464
 21
1101.9439880945
 31
0.0
  0
LINE
  5
DD
330
1F
100
AcDbEntity
  8
0
  6
Continuous
 62
     7
 48
10.0
370
    15
100
AcDbLine
 10
1098.8910557404
 20
1105.491060505
 30
0.0
 11
1098.8910557404
 21
1105.4439728357
 31
0.0
  0
LINE
  5
DE
330
1F
100
AcDbEntity
  8
0
  6
Continuous
 62
     7
 48
10.0
370
    15
100
AcDbLine
 10
1187.8910572902
 20
1105.4439728357
 30
0.0
 11
1187.8910572902
 21
1105.491060505
 31
0.0
  0
LINE
  5
DF
330
1F
100
AcDbEntity
  8
0
  6
Continuous
 62
     7
 48
10.0
370
    15
100
AcDbLine
 10
1201.3910548464
 20
1657.7842419244
 30
0.0
 11
1200.3910565451
 21
1658.7842886545
 31
0.0
  0
LINE
  5
E0
330
1F
100
AcDbEntity
  8
0
  6
Continuous
 62
     7
 48
10.0
370
    15
100
AcDbLine
 10
1086.3910564855
 20
1658.7842886545
 30
0.0
 11
1085.3910581842
 21
1657.7842419244
 31
0.0
  0
LINE
  5
E1
330
1F
100
AcDbEntity
  8
0
  6
Continuous
 62
     7
 48
10.0
370
    15
100
AcDbLine
 10
1201.3910548464
 20
1655.7842676736
 30
0.0
 11
1201.3910548464
 21
1657.7842419244
 31
0.0
  0
LINE
  5
E2
330
1F
100
AcDbEntity
  8
0
  6
Continuous
 62
     7
 48
10.0
370
    15
100
AcDbLine
 10
1085.3910581842
 20
1657.7842419244
 30
0.0
 11
1085.3910581842
 21
1655.7842676736
 31
0.0
  0
LINE
  5
E3
330
1F
100
AcDbEntity
  8
0
  6
Continuous
 62
     7
 48
10.0
370
    15
100
AcDbLine
 10
1188.3910583034
 20
1655.4910128213
 30
0.0
 11
1188.3910583034
 21
1655.7842676736
 31
0.0
  0
LINE
  5
E4
330
1F
100
AcDbEntity
  8
0
  6
Continuous
 62
     7
 48
10.0
370
    15
100
AcDbLine
 10
1098.3910547272
 20
1655.7842676736
 30
0.0
 11
1098.3910547272
 21
1655.4910128213
 31
0.0
  0
ARC
  5
E5
330
1F
100
AcDbEntity
  8
0
  6
Continuous
 62
     7
 48
100.0
370
    15
100
AcDbCircle
 10
1139.3910519054
 20
1513.6294894665
 30
0.0
 40
139.0000099743793
100
AcDbArc
 50
0.0000348736
 51
22.8862238021
  0
ARC
  5
E6
330
1F
100
AcDbEntity
  8
0
  6
Continuous
 62
     7
 48
100.0
370
    15
100
AcDbCircle
 10
1147.3910611252
 20
1513.6294894665
 30
0.0
 40
139.0000099743796
100
AcDbArc
 50
157.1137761979
 51
179.9999651264
  0
ARC
  5
E7
330
1F
100
AcDbEntity
  8
0
  6
Continuous
 62
     7
 48
100.0
370
    15
100
AcDbCircle
 10
1139.3910519059
 20
1247.3525838597
 30
0.0
 40
139.0000099738408
100
AcDbArc
 50
337.1137761979
 51
0.0000142645
  0
ARC
  5
E8
330
1F
100
AcDbEntity
  8
0
  6
Continuous
 62
     7
 48
100.0
370
    15
100
AcDbCircle
 10
1147.3910611247
 20
1247.3525838597
 30
0.0
 40
139.000009973841
100
AcDbArc
 50
179.9999857355
 51
202.8862238021
  0
LINE
  5
E9
330
1F
100
AcDbEntity
  8
0
  6
Continuous
 62
     7
 48
10.0
370
    15
100
AcDbLine
 10
1008.3910511509
 20
1513.6295740701
 30
0.0
 11
1008.3910511509
 21
1247.3526184656
 31
0.0
  0
LINE
  5
EA
330
1F
100
AcDbEntity
  8
0
  6
Continuous
 62
     7
 48
10.0
370
    15
100
AcDbLine
 10
1278.3910618797
 20
1247.3526184656
 30
0.0
 11
1278.3910618797
 21
1513.6295740701
 31
0.0
  0
ARC
  5
EB
330
1F
100
AcDbEntity
  8
0
  6
Continuous
 62
     7
 48
100.0
370
    15
100
AcDbCircle
 10
1119.2918886907
 20
1235.4909781599
 30
0.0
 40
108.4998266751653
100
AcDbArc
 50
202.8862182318
 51
248.7916761416
  0
ARC
  5
EC
330
1F
100
AcDbEntity
  8
0
  6
Continuous
 62
     7
 48
100.0
370
    15
100
AcDbCircle
 10
1167.4902243399
 20
1235.4909781599
 30
0.0
 40
108.4998266751646
100
AcDbArc
 50
291.2083238584
 51
337.1137817682
  0
ARC
  5
ED
330
1F
100
AcDbEntity
  8
0
  6
Continuous
 62
     7
 48
100.0
370
    15
100
AcDbCircle
 10
1119.2924798785
 20
1525.4906909386
 30
0.0
 40
108.5005285292858
100
AcDbArc
 50
111.2085149078
 51
157.1137065224
  0
ARC
  5
EE
330
1F
100
AcDbEntity
  8
0
  6
Continuous
 62
     7
 48
100.0
370
    15
100
AcDbCircle
 10
1167.4896331521
 20
1525.4906909386
 30
0.0
 40
108.5005285292859
100
AcDbArc
 50
22.8862934776
 51
68.7914850922
  0
ARC
  5
EF
330
1F
100
AcDbEntity
  8
0
  6
Continuous
 62
     7
 48
100.0
370
    15
100
AcDbCircle
 10
1073.8911966603
 20
1642.4909959726
 30
0.0
 40
16.99986149414685
100
AcDbArc
 50
291.2080461943
 51
0.0000182156
  0
ARC
  5
F0
330
1F
100
AcDbEntity
  8
0
  6
Continuous
 62
     7
 48
100.0
370
    15
100
AcDbCircle
 10
1212.8909163703
 20
1642.4909959726
 30
0.0
 40
16.99986149414685
100
AcDbArc
 50
179.9999817844
 51
248.7919538057
  0
ARC
  5
F1
330
1F
100
AcDbEntity
  8
0
  6
Continuous
 62
     7
 48
100.0
370
    15
100
AcDbCircle
 10
1073.8908788487
 20
1118.4909789869
 30
0.0
 40
17.00017930595819
100
AcDbArc
 50
0.0003133109
 51
68.7912205023
  0
ARC
  5
F2
330
1F
100
AcDbEntity
  8
0
  6
Continuous
 62
     7
 48
100.0
370
    15
100
AcDbCircle
 10
1212.8912341819
 20
1118.4909789869
 30
0.0
 40
17.00017930595768
100
AcDbArc
 50
111.2087794977
 51
179.9996866891
  0
LINE
  5
F3
330
1F
100
AcDbEntity
  8
0
  6
Continuous
 62
     7
 48
10.0
370
    15
100
AcDbLine
 10
1090.8910581544
 20
1105.9910242654
 30
0.0
 11
1091.3910554424
 21
1105.491060505
 31
0.0
  0
LINE
  5
F4
330
1F
100
AcDbEntity
  8
0
  6
Continuous
 62
     7
 48
10.0
370
    15
100
AcDbLine
 10
1195.3910575882
 20
1105.491060505
 30
0.0
 11
1195.8910548762
 21
1105.9910242654
 31
0.0
  0
LINE
  5
F5
330
1F
100
AcDbEntity
  8
0
  6
Continuous
 62
     7
 48
10.0
370
    15
100
AcDbLine
 10
1090.8910581544
 20
1118.4910719491
 30
0.0
 11
1090.8910581544
 21
1105.9910242654
 31
0.0
  0
LINE
  5
F6
330
1F
100
AcDbEntity
  8
0
  6
Continuous
 62
     7
 48
10.0
370
    15
100
AcDbLine
 10
1195.8910548762
 20
1105.9910242654
 30
0.0
 11
1195.8910548762
 21
1118.4910719491
 31
0.0
  0
LINE
  5
F7
330
1F
100
AcDbEntity
  8
0
  6
Continuous
 62
     7
 48
10.0
370
    15
100
AcDbLine
 10
1195.8910548762
 20
1654.991049061
 30
0.0
 11
1195.3910575882
 21
1655.4910128213
 31
0.0
  0
LINE
  5
F8
330
1F
100
AcDbEntity
  8
0
  6
Continuous
 62
     7
 48
10.0
370
    15
100
AcDbLine
 10
1091.3910554424
 20
1655.4910128213
 30
0.0
 11
1090.8910581544
 21
1654.991049061
 31
0.0
  0
LINE
  5
F9
330
1F
100
AcDbEntity
  8
0
  6
Continuous
 62
     7
 48
10.0
370
    15
100
AcDbLine
 10
1090.8910581544
 20
1654.991049061
 30
0.0
 11
1090.8910581544
 21
1642.4910013772
 31
0.0
  0
LINE
  5
FA
330
1F
100
AcDbEntity
  8
0
  6
Continuous
 62
     7
 48
10.0
370
    15
100
AcDbLine
 10
1195.8910548762
 20
1642.4910013772
 30
0.0
 11
1195.8910548762
 21
1654.991049061
 31
0.0
  0
LINE
  5
126
330
1F
100
AcDbEntity
  8
0
  6
Continuous
 62
     7
 48
10.0
370
    15
100
AcDbLine
 10
1140.9316142723
 20
2406.9644992448
 30
0.0
 11
1140.4045008291
 21
2406.9644992448
 31
0.0
  0
LINE
  5
127
330
1F
100
AcDbEntity
  8
0
  6
Continuous
 62
     7
 48
10.0
370
    15
100
AcDbLine
 10
1154.4045010284
 20
2406.9644992448
 30
0.0
 11
1140.9316142723
 21
2406.9644992448
 31
0.0
  0
LINE
  5
128
330
1F
100
AcDbEntity
  8
0
  6
Continuous
 62
     7
 48
10.0
370
    15
100
AcDbLine
 10
1138.904500816
 20
2409.5145051576
 30
0.0
 11
1137.3910564631
 21
2409.5145051576
 31
0.0
  0
LINE
  5
129
330
1F
100
AcDbEntity
  8
0
  6
Continuous
 62
     7
 48
10.0
370
    15
100
AcDbLine
 10
1142.3983815527
 20
2400.2145116426
 30
0.0
 11
1149.3910565674
 21
2400.2145116426
 31
0.0
  0
LINE
  5
12A
330
1F
100
AcDbEntity
  8
0
  6
Continuous
 62
     7
 48
10.0
370
    15
100
AcDbLine
 10
1137.3910564631
 20
2400.2145116426
 30
0.0
 11
1142.3983815527
 21
2400.2145116426
 31
0.0
  0
LINE
  5
12B
330
1F
100
AcDbEntity
  8
0
  6
Continuous
 62
     7
 48
10.0
370
    15
100
AcDbLine
 10
1142.4811044759
 20
2399.7145180799
 30
0.0
 11
1137.8910565451
 21
2399.7145180799
 31
0.0
  0
LINE
  5
12C
330
1F
100
AcDbEntity
  8
0
  6
Continuous
 62
     7
 48
10.0
370
    15
100
AcDbLine
 10
1148.8910564855
 20
2399.7145180799
 30
0.0
 11
1142.4811044759
 21
2399.7145180799
 31
0.0
  0
LINE
  5
12D
330
1F
100
AcDbEntity
  8
0
  6
Continuous
 62
     7
 48
10.0
370
    15
100
AcDbLine
 10
1213.3910568133
 20
2449.7145001985
 30
0.0
 11
1073.3910562173
 21
2449.7145001985
 31
0.0
  0
LINE
  5
12E
330
1F
100
AcDbEntity
  8
0
  6
Continuous
 62
     7
 48
10.0
370
    15
100
AcDbLine
 10
1210.3910581842
 20
2409.7145085431
 30
0.0
 11
1076.3910548464
 21
2409.7145085431
 31
0.0
  0
LINE
  5
12F
330
1F
100
AcDbEntity
  8
0
  6
Continuous
 62
     7
 48
10.0
370
    15
100
AcDbLine
 10
1147.7208296471
 20
1105.4439728357
 30
0.0
 11
1196.3910558894
 21
1105.4439728357
 31
0.0
  0
LINE
  5
130
330
1F
100
AcDbEntity
  8
0
  6
Continuous
 62
     7
 48
10.0
370
    15
100
AcDbLine
 10
1090.3910571411
 20
1105.4439728357
 30
0.0
 11
1147.7208296471
 21
1105.4439728357
 31
0.0
  0
LINE
  5
131
330
1F
100
AcDbEntity
  8
0
  6
Continuous
 62
     7
 48
10.0
370
    15
100
AcDbLine
 10
1143.155869349
 20
1814.7842471696
 30
0.0
 11
1144.1175946435
 21
1814.7842471696
 31
0.0
  0
LINE
  5
132
330
1F
100
AcDbEntity
  8
0
  6
Continuous
 62
     7
 48
10.0
370
    15
100
AcDbLine
 10
1143.3910565153
 20
1685.284275303
 30
0.0
 11
1149.3910565674
 21
1685.284275303
 31
0.0
  0
LINE
  5
133
330
1F
100
AcDbEntity
  8
0
  6
Continuous
 62
     7
 48
10.0
370
    15
100
AcDbLine
 10
1138.0632278212
 20
1685.284275303
 30
0.0
 11
1143.3910565153
 21
1685.284275303
 31
0.0
  0
LINE
  5
134
330
1F
100
AcDbEntity
  8
0
  6
Continuous
 62
     7
 48
10.0
370
    15
100
AcDbLine
 10
1138.1175378971
 20
1674.7830097772
 30
0.0
 11
1137.7247526013
 21
1671.2840979196
 31
0.0
  0
LINE
  5
135
330
1F
100
AcDbEntity
  8
0
  6
Continuous
 62
     7
 48
10.0
370
    15
100
AcDbLine
 10
1138.1175378971
 20
1674.7830097772
 30
0.0
 11
1138.1175378971
 21
1676.2027924157
 31
0.0
  0
LINE
  5
136
330
1F
100
AcDbEntity
  8
0
  6
Continuous
 62
     7
 48
10.0
370
    15
100
AcDbLine
 10
1137.7247526013
 20
1680.0069992639
 30
0.0
 11
1138.1175378971
 21
1676.2027924157
 31
0.0
  0
SPLINE
  5
137
330
1F
100
AcDbEntity
  8
0
  6
Continuous
 62
     7
 48
10.0
370
    15
100
AcDbSpline
210
0.0
220
0.0
230
1.0
 70
     8
 71
     3
 72
    11
 73
     7
 74
     0
 42
0.00000001
 43
0.00000001
 40
0.0
 40
0.0
 40
0.0
 40
0.0
 40
0.1553079856560717
 40
0.3777845366801738
 40
0.7076364123228327
 40
0.9999999999999999
 40
0.9999999999999999
 40
0.9999999999999999
 40
0.9999999999999999
 10
1137.274684913472
 20
1681.087869892251
 30
0.0
 10
1137.322921579698
 20
1681.047824773063
 30
0.0
 10
1137.440256606125
 20
1680.950415572016
 30
0.0
 10
1137.562710731531
 20
1680.688376799874
 30
0.0
 10
1137.676354959058
 20
1680.370697666281
 30
0.0
 10
1137.709281321551
 20
1680.123262772924
 30
0.0
 10
1137.724752601252
 20
1680.006999263894
 30
0.0
  0
SPLINE
  5
138
330
1F
100
AcDbEntity
  8
0
  6
Continuous
 62
     7
 48
10.0
370
    15
100
AcDbSpline
210
0.0
220
0.0
230
1.0
 70
     8
 71
     3
 72
    12
 73
     8
 74
     0
 42
0.00000001
 43
0.00000001
 40
0.0
 40
0.0
 40
0.0
 40
0.0
 40
0.2981023656266721
 40
0.5559222144056313
 40
0.7632806794984007
 40
0.923536402644029
 40
1.0
 40
1.0
 40
1.0
 40
1.0
 10
1137.724752601252
 20
1671.284097919595
 30
0.0
 10
1137.711393097785
 20
1671.191789785997
 30
0.0
 10
1137.686479358053
 20
1671.019647099611
 30
0.0
 10
1137.598475057343
 20
1670.794116298784
 30
0.0
 10
1137.491980689216
 20
1670.632972191674
 30
0.0
 10
1137.374322607301
 20
1670.537040714948
 30
0.0
 10
1137.29901145259
 20
1670.542246046929
 30
0.0
 10
1137.274684913472
 20
1670.543927440774
 30
0.0
  0
SPLINE
  5
139
330
1F
100
AcDbEntity
  8
0
  6
Continuous
 62
     7
 48
10.0
370
    15
100
AcDbSpline
210
0.0
220
0.0
230
1.0
 70
     8
 71
     3
 72
    11
 73
     7
 74
     0
 42
0.00000001
 43
0.00000001
 40
0.0
 40
0.0
 40
0.0
 40
0.0
 40
0.4008214992457117
 40
0.6893273333132882
 40
0.9377032213291325
 40
1.0
 40
1.0
 40
1.0
 40
1.0
 10
1149.057360429333
 20
1680.006999263894
 30
0.0
 10
1149.080851454489
 20
1680.166722023819
 30
0.0
 10
1149.121250998322
 20
1680.441411042187
 30
0.0
 10
1149.262996653322
 20
1680.78555193643
 30
0.0
 10
1149.380821933419
 20
1681.007517193612
 30
0.0
 10
1149.48628119073
 20
1681.074448647307
 30
0.0
 10
1149.507428117112
 20
1681.087869892251
 30
0.0
  0
LINE
  5
13A
330
1F
100
AcDbEntity
  8
0
  6
Continuous
 62
     7
 48
10.0
370
    15
100
AcDbLine
 10
1148.6645751335
 20
1676.2027924157
 30
0.0
 11
1149.0573604293
 21
1680.0069992639
 31
0.0
  0
LINE
  5
13B
330
1F
100
AcDbEntity
  8
0
  6
Continuous
 62
     7
 48
10.0
370
    15
100
AcDbLine
 10
1148.6645751335
 20
1676.2027924157
 30
0.0
 11
1148.6645751335
 21
1674.7830097772
 31
0.0
  0
LINE
  5
13C
330
1F
100
AcDbEntity
  8
0
  6
Continuous
 62
     7
 48
10.0
370
    15
100
AcDbLine
 10
1149.0573604293
 20
1671.2840979196
 30
0.0
 11
1148.6645751335
 21
1674.7830097772
 31
0.0
  0
SPLINE
  5
13D
330
1F
100
AcDbEntity
  8
0
  6
Continuous
 62
     7
 48
10.0
370
    15
100
AcDbSpline
210
0.0
220
0.0
230
1.0
 70
     8
 71
     3
 72
    11
 73
     7
 74
     0
 42
0.00000001
 43
0.00000001
 40
0.0
 40
0.0
 40
0.0
 40
0.0
 40
0.1466188880510532
 40
0.3659292455892714
 40
0.655661784254513
 40
1.0
 40
1.0
 40
1.0
 40
1.0
 10
1149.507428117112
 20
1670.543927440774
 30
0.0
 10
1149.460365340935
 20
1670.548753377389
 30
0.0
 10
1149.342906762366
 20
1670.560797878398
 30
0.0
 10
1149.212996832622
 20
1670.741439126142
 30
0.0
 10
1149.103147206732
 20
1670.979684643604
 30
0.0
 10
1149.073474485638
 20
1671.176963656213
 30
0.0
 10
1149.057360429333
 20
1671.284097919595
 30
0.0
  0
ARC
  5
13E
330
1F
100
AcDbEntity
  8
0
  6
Continuous
 62
     7
 48
100.0
370
    15
100
AcDbCircle
 10
1143.391006568
 20
1694.7842598572
 30
0.0
 40
15.82640188810981
100
AcDbArc
 50
290.9793662078001
 51
359.9997210202
  0
ARC
  5
141
330
1F
100
AcDbEntity
  8
0
  6
Continuous
 62
     7
 48
100.0
370
    15
100
AcDbCircle
 10
1143.3909956074
 20
1694.7842267021
 30
0.0
 40
24.17358812005448
100
AcDbArc
 50
180.0001040639
 51
256.443854796
  0
LINE
  5
144
330
1F
100
AcDbEntity
  8
0
  6
Continuous
 62
     7
 48
10.0
370
    15
100
AcDbLine
 10
1119.2174074873
 20
1694.7841827966
 30
0.0
 11
1119.2174074873
 21
1799.7842614747
 31
0.0
  0
LINE
  5
148
330
1F
100
AcDbEntity
  8
0
  6
Continuous
 62
     7
 48
10.0
370
    15
100
AcDbLine
 10
1159.2174084559
 20
1799.7842614747
 30
0.0
 11
1159.2174084559
 21
1694.7841827966
 31
0.0
  0
ARC
  5
14A
330
1F
100
AcDbEntity
  8
0
  6
Continuous
 62
     7
 48
100.0
370
    15
100
AcDbCircle
 10
1143.3910565153
 20
1799.7842298098
 30
0.0
 40
24.17364902796435
100
AcDbArc
 50
0.0000750516
 51
179.9999249484
  0
ARC
  5
14F
330
1F
100
AcDbEntity
  8
0
  6
Continuous
 62
     7
 48
100.0
370
    15
100
AcDbCircle
 10
1143.3910565153
 20
1799.7842214582
 30
0.0
 40
15.82635194068246
100
AcDbArc
 50
0.000144871
 51
179.999855129
  0
LINE
  5
150
330
1F
100
AcDbEntity
  8
0
  6
Continuous
 62
     7
 48
10.0
370
    15
100
AcDbLine
 10
1167.5647055432
 20
1799.7842614747
 30
0.0
 11
1167.5647055432
 21
1694.7841827966
 31
0.0
  0
ARC
  5
155
330
1F
100
AcDbEntity
  8
0
  6
Continuous
 62
     7
 48
100.0
370
    15
100
AcDbCircle
 10
1143.3911064626
 20
1694.7842598572
 30
0.0
 40
15.82640188810958
100
AcDbArc
 50
180.0002789798
 51
249.0206337922
  0
ARC
  5
157
330
1F
100
AcDbEntity
  8
0
  6
Continuous
 62
     7
 48
100.0
370
    15
100
AcDbCircle
 10
1143.3911151154
 20
1694.7842285196
 30
0.0
 40
24.17359042788102
100
AcDbArc
 50
283.5561495119001
 51
359.9998916282
  0
LINE
  5
159
330
1F
100
AcDbEntity
  8
0
  6
Continuous
 62
     7
 48
10.0
370
    15
100
AcDbLine
 10
1127.5647045747
 20
1694.7841827966
 30
0.0
 11
1127.5647045747
 21
1799.7842614747
 31
0.0
  0
ARC
  5
15A
330
1F
100
AcDbEntity
  8
0
  6
Continuous
 62
     7
 48
100.0
370
    15
100
AcDbCircle
 10
1143.3910165237
 20
1694.7842452856
 30
0.0
 40
15.00003965641996
100
AcDbArc
 50
294.0641798198
 51
359.9997613104
  0
LINE
  5
15B
330
1F
100
AcDbEntity
  8
0
  6
Continuous
 62
     7
 48
10.0
370
    15
100
AcDbLine
 10
1159.2174084559
 20
1694.7841827966
 30
0.0
 11
1158.39105618
 21
1694.7841827966
 31
0.0
  0
LINE
  5
15C
330
1F
100
AcDbEntity
  8
0
  6
Continuous
 62
     7
 48
10.0
370
    15
100
AcDbLine
 10
1127.5647045747
 20
1694.7841827966
 30
0.0
 11
1128.3910568506
 21
1694.7841827966
 31
0.0
  0
ARC
  5
15D
330
1F
100
AcDbEntity
  8
0
  6
Continuous
 62
     7
 48
100.0
370
    15
100
AcDbCircle
 10
1143.3910965069
 20
1694.7842452856
 30
0.0
 40
15.00003965641978
100
AcDbArc
 50
180.0002386896
 51
245.9358201802
  0
LINE
  5
15E
330
1F
100
AcDbEntity
  8
0
  6
Continuous
 62
     7
 48
10.0
370
    15
100
AcDbLine
 10
1168.3910568878
 20
1694.7841827966
 30
0.0
 11
1167.5647055432
 21
1694.7841827966
 31
0.0
  0
ARC
  5
15F
330
1F
100
AcDbEntity
  8
0
  6
Continuous
 62
     7
 48
100.0
370
    15
100
AcDbCircle
 10
1143.3908647197
 20
1694.7843329793
 30
0.0
 40
25.00019216861027
100
AcDbArc
 50
284.1617804026
 51
359.9996558093
  0
ARC
  5
160
330
1F
100
AcDbEntity
  8
0
  6
Continuous
 62
     7
 48
100.0
370
    15
100
AcDbCircle
 10
1143.3910914181
 20
1694.7842107567
 30
0.0
 40
25.00003527533903
100
AcDbArc
 50
180.0000640798
 51
255.8384997084
  0
LINE
  5
161
330
1F
100
AcDbEntity
  8
0
  6
Continuous
 62
     7
 48
10.0
370
    15
100
AcDbLine
 10
1118.3910561428
 20
1694.7841827966
 30
0.0
 11
1119.2174074873
 21
1694.7841827966
 31
0.0
  0
LINE
  5
163
330
1F
100
AcDbEntity
  8
0
  6
Continuous
 62
     7
 48
10.0
370
    15
100
AcDbLine
 10
1128.3910568506
 20
1752.9716675378
 30
0.0
 11
1128.3910568506
 21
1799.7842614747
 31
0.0
  0
SPLINE
  5
164
330
1F
100
AcDbEntity
  8
0
  6
Continuous
 62
     7
 48
10.0
370
    15
100
AcDbSpline
210
0.0
220
0.0
230
1.0
 70
     8
 71
     3
 72
    11
 73
     7
 74
     0
 42
0.00000001
 43
0.00000001
 40
0.0
 40
0.0
 40
0.0
 40
0.0
 40
0.244684107875494
 40
0.5781468844281531
 40
0.9114197738960534
 40
1.0
 40
1.0
 40
1.0
 40
1.0
 10
1128.391056850568
 20
1750.59678007139
 30
0.0
 10
1128.382547695086
 20
1750.790387732474
 30
0.0
 10
1128.36244200954
 20
1751.247849669947
 30
0.0
 10
1128.329106283096
 20
1751.970278522618
 30
0.0
 10
1128.383201923274
 20
1752.567351917769
 30
0.0
 10
1128.389693712272
 20
1752.901502902955
 30
0.0
 10
1128.391056850568
 20
1752.97166753782
 30
0.0
  0
LINE
  5
165
330
1F
100
AcDbEntity
  8
0
  6
Continuous
 62
     7
 48
10.0
370
    15
100
AcDbLine
 10
1128.3910568506
 20
1694.7841827966
 30
0.0
 11
1128.3910568506
 21
1750.5967800714
 31
0.0
  0
ARC
  5
167
330
1F
100
AcDbEntity
  8
0
  6
Continuous
 62
     7
 48
100.0
370
    15
100
AcDbCircle
 10
1143.391095378
 20
1799.7842695988
 30
0.0
 40
14.99996080201407
100
AcDbArc
 50
359.9999689684
 51
85.45972187230001
  0
SPLINE
  5
168
330
1F
100
AcDbEntity
  8
0
  6
Continuous
 62
     7
 48
10.0
370
    15
100
AcDbSpline
210
0.0
220
0.0
230
1.0
 70
     8
 71
     3
 72
    10
 73
     6
 74
     0
 42
0.00000001
 43
0.00000001
 40
0.0
 40
0.0
 40
0.0
 40
0.0
 40
0.3302699930768289
 40
0.6828402510355653
 40
1.0
 40
1.0
 40
1.0
 40
1.0
 10
1142.203622328133
 20
1814.737159500253
 30
0.0
 10
1142.464200898306
 20
1814.768334846827
 30
0.0
 10
1143.002952646878
 20
1814.832790540433
 30
0.0
 10
1143.799911460477
 20
1814.82975718132
 30
0.0
 10
1144.328276334068
 20
1814.766917897386
 30
0.0
 10
1144.578490702451
 20
1814.737159500253
 30
0.0
  0
ARC
  5
169
330
1F
100
AcDbEntity
  8
0
  6
Continuous
 62
     7
 48
100.0
370
    15
100
AcDbCircle
 10
1143.3910313853
 20
1799.7842569134
 30
0.0
 40
14.99997453470024
100
AcDbArc
 50
94.5403265825
 51
179.9999825768
  0
ARC
  5
16B
330
1F
100
AcDbEntity
  8
0
  6
Continuous
 62
     7
 48
100.0
370
    15
100
AcDbCircle
 10
1143.3910565153
 20
1799.7842372603
 30
0.0
 40
25.00000037254075
100
AcDbArc
 50
0.0000554953
 51
179.9999445047
  0
LINE
  5
16D
330
1F
100
AcDbEntity
  8
0
  6
Continuous
 62
     7
 48
10.0
370
    15
100
AcDbLine
 10
1158.39105618
 20
1750.5967800714
 30
0.0
 11
1158.39105618
 21
1694.7841827966
 31
0.0
  0
SPLINE
  5
16E
330
1F
100
AcDbEntity
  8
0
  6
Continuous
 62
     7
 48
10.0
370
    15
100
AcDbSpline
210
0.0
220
0.0
230
1.0
 70
     8
 71
     3
 72
    11
 73
     7
 74
     0
 42
0.00000001
 43
0.00000001
 40
0.0
 40
0.0
 40
0.0
 40
0.0
 40
0.2446590435124711
 40
0.5781468789130012
 40
0.9113947059700219
 40
1.0
 40
1.0
 40
1.0
 40
1.0
 10
1158.391056180016
 20
1752.97166753782
 30
0.0
 10
1158.399565500239
 20
1752.778079751445
 30
0.0
 10
1158.419673634635
 20
1752.320617918514
 30
0.0
 10
1158.453008290387
 20
1751.59820866337
 30
0.0
 10
1158.398907721506
 20
1751.001115671518
 30
0.0
 10
1158.392419049393
 20
1750.66696458334
 30
0.0
 10
1158.391056180016
 20
1750.59678007139
 30
0.0
  0
LINE
  5
16F
330
1F
100
AcDbEntity
  8
0
  6
Continuous
 62
     7
 48
10.0
370
    15
100
AcDbLine
 10
1158.39105618
 20
1799.7842614747
 30
0.0
 11
1158.39105618
 21
1752.9716675378
 31
0.0
  0
LINE
  5
170
330
1F
100
AcDbEntity
  8
0
  6
Continuous
 62
     7
 48
10.0
370
    15
100
AcDbLine
 10
1168.3910568878
 20
1799.7842614747
 30
0.0
 11
1168.3910568878
 21
1694.7841827966
 31
0.0
  0
LINE
  5
171
330
1F
100
AcDbEntity
  8
0
  6
Continuous
 62
     7
 48
10.0
370
    15
100
AcDbLine
 10
1118.3910561428
 20
1694.7841827966
 30
0.0
 11
1118.3910561428
 21
1799.7842614747
 31
0.0
  0
LINE
  5
172
330
1F
100
AcDbEntity
  8
0
  6
Continuous
 62
     7
 48
10.0
370
    15
100
AcDbLine
 10
1174.2123724595
 20
1101.9439880945
 30
0.0
 11
1201.3910548464
 21
1101.9439880945
 31
0.0
  0
LINE
  5
173
330
1F
100
AcDbEntity
  8
0
  6
Continuous
 62
     7
 48
10.0
370
    15
100
AcDbLine
 10
1085.3910581842
 20
1101.9439880945
 30
0.0
 11
1174.2123724595
 21
1101.9439880945
 31
0.0
  0
LINE
  5
174
330
1F
100
AcDbEntity
  8
0
  6
Continuous
 62
     7
 48
10.0
370
    15
100
AcDbLine
 10
1174.2123724595
 20
1103.9439623453
 30
0.0
 11
1085.3910581842
 21
1103.9439623453
 31
0.0
  0
LINE
  5
175
330
1F
100
AcDbEntity
  8
0
  6
Continuous
 62
     7
 48
10.0
370
    15
100
AcDbLine
 10
1201.3910548464
 20
1103.9439623453
 30
0.0
 11
1174.2123724595
 21
1103.9439623453
 31
0.0
  0
LINE
  5
176
330
1F
100
AcDbEntity
  8
0
  6
Continuous
 62
     7
 48
10.0
370
    15
100
AcDbLine
 10
1173.6809691116
 20
1100.9439413644
 30
0.0
 11
1086.3910564855
 21
1100.9439413644
 31
0.0
  0
LINE
  5
177
330
1F
100
AcDbEntity
  8
0
  6
Continuous
 62
     7
 48
10.0
370
    15
100
AcDbLine
 10
1200.3910565451
 20
1100.9439413644
 30
0.0
 11
1173.6809691116
 21
1100.9439413644
 31
0.0
  0
LINE
  5
178
330
1F
100
AcDbEntity
  8
0
  6
Continuous
 62
     7
 48
10.0
370
    15
100
AcDbLine
 10
1143.3910565153
 20
1658.7842886545
 30
0.0
 11
1200.3910565451
 21
1658.7842886545
 31
0.0
  0
LINE
  5
179
330
1F
100
AcDbEntity
  8
0
  6
Continuous
 62
     7
 48
10.0
370
    15
100
AcDbLine
 10
1086.3910564855
 20
1658.7842886545
 30
0.0
 11
1143.3910565153
 21
1658.7842886545
 31
0.0
  0
LINE
  5
17A
330
1F
100
AcDbEntity
  8
0
  6
Continuous
 62
     7
 48
10.0
370
    15
100
AcDbLine
 10
1143.3910565153
 20
1657.7842419244
 30
0.0
 11
1085.3910581842
 21
1657.7842419244
 31
0.0
  0
LINE
  5
17B
330
1F
100
AcDbEntity
  8
0
  6
Continuous
 62
     7
 48
10.0
370
    15
100
AcDbLine
 10
1201.3910548464
 20
1657.7842419244
 30
0.0
 11
1143.3910565153
 21
1657.7842419244
 31
0.0
  0
LINE
  5
17C
330
1F
100
AcDbEntity
  8
0
  6
Continuous
 62
     7
 48
10.0
370
    15
100
AcDbLine
 10
1143.3910565153
 20
1655.7842676736
 30
0.0
 11
1201.3910548464
 21
1655.7842676736
 31
0.0
  0
LINE
  5
17D
330
1F
100
AcDbEntity
  8
0
  6
Continuous
 62
     7
 48
10.0
370
    15
100
AcDbLine
 10
1085.3910581842
 20
1655.7842676736
 30
0.0
 11
1143.3910565153
 21
1655.7842676736
 31
0.0
  0
LINE
  5
17E
330
1F
100
AcDbEntity
  8
0
  6
Continuous
 62
     7
 48
10.0
370
    15
100
AcDbLine
 10
1143.3910565153
 20
1105.9910242654
 30
0.0
 11
1195.8910548762
 21
1105.9910242654
 31
0.0
  0
LINE
  5
17F
330
1F
100
AcDbEntity
  8
0
  6
Continuous
 62
     7
 48
10.0
370
    15
100
AcDbLine
 10
1090.8910581544
 20
1105.9910242654
 30
0.0
 11
1143.3910565153
 21
1105.9910242654
 31
0.0
  0
LINE
  5
180
330
1F
100
AcDbEntity
  8
0
  6
Continuous
 62
     7
 48
10.0
370
    15
100
AcDbLine
 10
1143.3910565153
 20
1105.491060505
 30
0.0
 11
1091.3910554424
 21
1105.491060505
 31
0.0
  0
LINE
  5
181
330
1F
100
AcDbEntity
  8
0
  6
Continuous
 62
     7
 48
10.0
370
    15
100
AcDbLine
 10
1195.3910575882
 20
1105.491060505
 30
0.0
 11
1143.3910565153
 21
1105.491060505
 31
0.0
  0
LINE
  5
182
330
1F
100
AcDbEntity
  8
0
  6
Continuous
 62
     7
 48
10.0
370
    15
100
AcDbLine
 10
1091.3910554424
 20
1655.4910128213
 30
0.0
 11
1195.3910575882
 21
1655.4910128213
 31
0.0
  0
LINE
  5
183
330
1F
100
AcDbEntity
  8
0
  6
Continuous
 62
     7
 48
10.0
370
    15
100
AcDbLine
 10
1195.8910548762
 20
1654.991049061
 30
0.0
 11
1090.8910581544
 21
1654.991049061
 31
0.0
  0
LINE
  5
184
330
1F
100
AcDbEntity
  8
0
  6
Continuous
 62
     8
 48
10.0
370
    15
100
AcDbLine
 10
1139.5445671566
 20
2408.4645097352
 30
0.0
 11
1138.904500816
 21
2408.4645097352
 31
0.0
  0
LINE
  5
187
330
1F
100
AcDbEntity
  8
0
  6
Continuous
 62
     8
 48
10.0
370
    15
100
AcDbLine
 10
1143.3910565153
 20
1660.2841799356
 30
0.0
 11
1149.8910566494
 21
1660.2841799356
 31
0.0
  0
LINE
  5
188
330
1F
100
AcDbEntity
  8
0
  6
Continuous
 62
     8
 48
10.0
370
    15
100
AcDbLine
 10
1136.8910563812
 20
1660.2841799356
 30
0.0
 11
1143.3910565153
 21
1660.2841799356
 31
0.0
  0
LINE
  5
189
330
1F
100
AcDbEntity
  8
0
  6
Continuous
 62
     8
 48
10.0
370
    15
100
AcDbLine
 10
1143.3910565153
 20
1684.7841923334
 30
0.0
 11
1136.8910563812
 21
1684.7841923334
 31
0.0
  0
LINE
  5
18A
330
1F
100
AcDbEntity
  8
0
  6
Continuous
 62
     8
 48
10.0
370
    15
100
AcDbLine
 10
1149.8910566494
 20
1684.7841923334
 30
0.0
 11
1143.3910565153
 21
1684.7841923334
 31
0.0
  0
DIMENSION
  5
19B
330
1F
100
AcDbEntity
  8
0
  6
Continuous
 62
     7
 48
10.0
370
     0
100
AcDbDimension
  2
*D2
 10
1558.3910565152
 20
1100.9439323274
 30
0.0
 11
1558.3910565152
 21
1402.3827479725
 31
0.0
 70
    32
 71
     2
 42
-1.0
 73
     0
 74
     0
 75
     0
  3
SLDDIMSTYLE0
100
AcDbAlignedDimension
 13
1164.0850925857
 23
1824.7842385636
 33
0.0
 14
1200.3910565153
 24
1100.9439323274
 34
0.0
 50
90.0
100
AcDbRotatedDimension
  0
DIMENSION
  5
1A6
330
1F
100
AcDbEntity
  8
0
  6
Continuous
 62
     7
 48
10.0
370
     0
100
AcDbDimension
  2
*D3
 10
763.3206874779
 20
1105.491053482
 30
0.0
 11
763.3206874779
 21
1408.2240490863
 31
0.0
 70
    32
 71
     2
 42
-1.0
 73
     0
 74
     0
 75
     0
  3
SLDDIMSTYLE1
100
AcDbAlignedDimension
 13
1091.3910565153
 23
1655.491053482
 33
0.0
 14
1091.3910565153
 24
1105.491053482
 34
0.0
 50
90.0
100
AcDbRotatedDimension
  0
DIMENSION
  5
1B1
330
1F
100
AcDbEntity
  8
0
  6
Continuous
 62
     7
 48
10.0
370
     0
100
AcDbDimension
  2
*D4
 10
1008.3910565153
 20
939.2986797029
 30
0.0
 11
1127.3524326231
 21
939.2986797029
 31
0.0
 70
    32
  1
%%c<>
 71
     2
 42
-1.0
 73
     0
 74
     0
 75
     0
  3
SLDDIMSTYLE2
100
AcDbAlignedDimension
 13
1278.3910565152
 23
1247.3525754416
 33
0.0
 14
1008.3910565153
 24
1247.3525754416
 34
0.0
100
AcDbRotatedDimension
  0
DIMENSION
  5
1BF
330
1F
100
AcDbEntity
  8
0
  6
Continuous
 62
     7
 48
10.0
370
     0
100
AcDbDimension
  2
*D5
 10
1073.3910565153
 20
2544.2254629609
 30
0.0
 11
1126.510971422
 21
2544.2254629609
 31
0.0
 70
    32
  1
%%c<>
 71
     2
 42
-1.0
 73
     0
 74
     0
 75
     0
  3
SLDDIMSTYLE2
100
AcDbAlignedDimension
 13
1213.3910565153
 23
2449.7145046636
 33
0.0
 14
1073.3910565153
 24
2449.7145046636
 34
0.0
100
AcDbRotatedDimension
  0
DIMENSION
  5
1CC
330
1F
100
AcDbEntity
  8
0
  6
Continuous
 62
     7
 48
10.0
370
     0
100
AcDbDimension
  2
*D6
 10
1398.2528129309
 20
2449.7145046636
 30
0.0
 11
1398.2528129309
 21
2430.0815504062
 31
0.0
 70
    32
 71
     2
 42
-1.0
 73
     0
 74
     0
 75
     0
  3
SLDDIMSTYLE2
100
AcDbAlignedDimension
 13
1210.3910565153
 23
2409.7145046636
 33
0.0
 14
1210.8910565153
 24
2449.7145046636
 34
0.0
 50
90.0
100
AcDbRotatedDimension
  0
DIMENSION
  5
1D8
330
1F
100
AcDbEntity
  8
0
  6
Continuous
 62
     7
 48
10.0
370
     0
100
AcDbDimension
  2
*D7
 10
763.3206874779
 20
2409.7145046636
 30
0.0
 11
763.3206874779
 21
2046.2425837671
 31
0.0
 70
    32
  1
MAX.2,5M
 71
     2
 42
-1.0
 73
     0
 74
     0
 75
     0
  3
SLDDIMSTYLE1
100
AcDbAlignedDimension
 13
1091.3910565153
 23
1655.491053482
 33
0.0
 14
1076.3910565153
 24
2409.7145046636
 34
0.0
 50
90.0
100
AcDbRotatedDimension
  0
DIMENSION
  5
1E2
330
1F
100
AcDbEntity
  8
0
  6
Continuous
 62
     7
 48
10.0
370
     0
100
AcDbDimension
  2
*D8
 10
1085.3910565153
 20
1012.8652008544
 30
0.0
 11
1126.510971422
 21
1012.8652008544
 31
0.0
 70
    32
  1
%%c<>
 71
     2
 42
-1.0
 73
     0
 74
     0
 75
     0
  3
SLDDIMSTYLE2
100
AcDbAlignedDimension
 13
1201.3910565153
 23
1101.9439323274
 33
0.0
 14
1085.3910565153
 24
1101.9439323274
 34
0.0
100
AcDbRotatedDimension
  0
ENDSEC
  0
SECTION
  2
OBJECTS
  0
DICTIONARY
  5
C
330
0
100
AcDbDictionary
281
     1
  3
ACAD_COLOR
350
6C
  3
ACAD_GROUP
350
D
  3
ACAD_IMAGE_DICT
350
40
  3
ACAD_LAYOUT
350
1A
  3
ACAD_MATERIAL
350
6B
  3
ACAD_MLEADERSTYLE
350
1FB
  3
ACAD_MLINESTYLE
350
17
  3
ACAD_PLOTSETTINGS
350
19
  3
ACAD_PLOTSTYLENAME
350
E
  3
ACAD_SCALELIST
350
99
  3
ACAD_TABLESTYLE
350
92
  3
ACAD_VISUALSTYLE
350
2A
  3
AcDbVariableDictionary
350
59
  0
DICTIONARY
  5
22D
330
1F
100
AcDbDictionary
280
     1
281
     1
  0
DICTIONARY
  5
6C
102
{ACAD_REACTORS
330
C
102
}
330
C
100
AcDbDictionary
281
     1
  0
DICTIONARY
  5
D
102
{ACAD_REACTORS
330
C
102
}
330
C
100
AcDbDictionary
281
     1
  0
DICTIONARY
  5
40
102
{ACAD_REACTORS
330
C
102
}
330
C
100
AcDbDictionary
281
     1
  3
G:\JSL\PARACHILNA\PRODUCTOS\BAI\BAI BA BA\CAD\DXF8133.BMP
350
41
  0
DICTIONARY
  5
1A
102
{ACAD_REACTORS
330
C
102
}
330
C
100
AcDbDictionary
281
     1
  3
Layout1
350
74
  3
Layout2
350
26
  3
Model
350
22
  0
DICTIONARY
  5
6B
102
{ACAD_REACTORS
330
C
102
}
330
C
100
AcDbDictionary
281
     1
  0
DICTIONARY
  5
1FB
102
{ACAD_REACTORS
330
C
102
}
330
C
100
AcDbDictionary
281
     1
  0
DICTIONARY
  5
17
102
{ACAD_REACTORS
330
C
102
}
330
C
100
AcDbDictionary
281
     1
  3
Standard
350
18
  0
DICTIONARY
  5
19
102
{ACAD_REACTORS
330
C
102
}
330
C
100
AcDbDictionary
281
     1
  0
ACDBDICTIONARYWDFLT
  5
E
102
{ACAD_REACTORS
330
C
102
}
330
C
100
AcDbDictionary
281
     1
  3
Normal
350
F
100
AcDbDictionaryWithDefault
340
F
  0
DICTIONARY
  5
99
102
{ACAD_REACTORS
330
C
102
}
330
C
100
AcDbDictionary
281
     1
  3
A0
350
66
  3
A1
350
67
  3
A2
350
68
  3
A3
350
69
  3
A4
350
6A
  3
A5
350
20C
  3
A6
350
20D
  3
A7
350
6D
  3
A8
350
6E
  3
A9
350
6F
  3
B0
350
70
  3
B1
350
71
  3
B2
350
72
  3
B3
350
20E
  3
B4
350
20F
  3
B5
350
210
  3
B6
350
211
  3
B7
350
77
  3
B8
350
78
  3
B9
350
79
  3
C0
350
7A
  3
C1
350
7B
  3
C2
350
7C
  3
C3
350
7D
  3
C4
350
7E
  3
C5
350
7F
  3
C6
350
80
  3
C7
350
81
  3
C8
350
82
  3
C9
350
83
  3
D0
350
84
  3
D1
350
85
  3
D2
350
86
  0
DICTIONARY
  5
92
102
{ACAD_REACTORS
330
C
102
}
330
C
100
AcDbDictionary
281
     1
  3
Standard
350
93
  0
DICTIONARY
  5
2A
102
{ACAD_REACTORS
330
C
102
}
330
C
100
AcDbDictionary
281
     1
  3
2DWIREFRAME
350
2F
  3
3D HIDDEN
350
31
  3
3DWIREFRAME
350
30
  3
BASIC
350
32
  3
BRIGHTEN
350
36
  3
COLORCHANGE
350
3A
  3
CONCEPTUAL
350
34
  3
DIM
350
35
  3
FACEPATTERN
350
39
  3
FLAT
350
2B
  3
FLATWITHEDGES
350
2C
  3
GOURAUD
350
2D
  3
GOURAUDWITHEDGES
350
2E
  3
LINEPATTERN
350
38
  3
REALISTIC
350
33
  3
THICKEN
350
37
  0
DICTIONARY
  5
59
102
{ACAD_REACTORS
330
C
102
}
330
C
100
AcDbDictionary
281
     1
  3
CANNOSCALE
350
22E
  3
CTABLESTYLE
350
98
  3
DIMASSOC
350
1FF
  3
HIDETEXT
350
200
  0
IMAGEDEF
  5
41
102
{ACAD_REACTORS
330
40
102
}
330
40
100
AcDbRasterImageDef
 90
        0
  1
G:\JSL\PARACHILNA\PRODUCTOS\BAI\BAI BA BA\CAD\dxf8133.bmp
 10
468.0
 20
40.0
 11
0.002136752136752137
 21
0.002136752136752137
280
     1
281
     0
  0
LAYOUT
  5
74
102
{ACAD_REACTORS
330
1A
102
}
330
1A
100
AcDbPlotSettings
  1

  2
none_device
  4
ISO_C5_(229.00_x_162.00_MM)
  6

 40
0.0
 41
0.0
 42
0.0
 43
0.0
 44
229.0
 45
162.0
 46
0.0
 47
0.0
 48
0.0
 49
0.0
140
0.0
141
0.0
142
1.0
143
1.0
 70
   688
 72
     1
 73
     0
 74
     5
  7

 75
    16
 76
     0
 77
     2
 78
   300
147
1.0
148
0.0
149
0.0
100
AcDbLayout
  1
Layout1
 70
     1
 71
     1
 10
0.0
 20
0.0
 11
420.0
 21
297.0
 12
0.0
 22
0.0
 32
0.0
 14
1.000000000000000E+20
 24
1.000000000000000E+20
 34
1.000000000000000E+20
 15
-1.000000000000000E+20
 25
-1.000000000000000E+20
 35
-1.000000000000000E+20
146
0.0
 13
0.0
 23
0.0
 33
0.0
 16
1.0
 26
0.0
 36
0.0
 17
0.0
 27
1.0
 37
0.0
 76
     0
330
73
  0
LAYOUT
  5
26
102
{ACAD_REACTORS
330
1A
102
}
330
1A
100
AcDbPlotSettings
  1

  2
none_device
  4
ISO_C5_(229.00_x_162.00_MM)
  6

 40
0.0
 41
0.0
 42
0.0
 43
0.0
 44
229.0
 45
162.0
 46
0.0
 47
0.0
 48
0.0
 49
0.0
140
0.0
141
0.0
142
1.0
143
1.0
 70
   688
 72
     1
 73
     0
 74
     5
  7

 75
    16
 76
     0
 77
     2
 78
   300
147
1.0
148
0.0
149
0.0
100
AcDbLayout
  1
Layout2
 70
     1
 71
     2
 10
0.0
 20
0.0
 11
0.0
 21
0.0
 12
0.0
 22
0.0
 32
0.0
 14
0.0
 24
0.0
 34
0.0
 15
0.0
 25
0.0
 35
0.0
146
0.0
 13
0.0
 23
0.0
 33
0.0
 16
1.0
 26
0.0
 36
0.0
 17
0.0
 27
1.0
 37
0.0
 76
     0
330
23
  0
LAYOUT
  5
22
102
{ACAD_REACTORS
330
1A
102
}
330
1A
100
AcDbPlotSettings
  1

  2
none_device
  4
ISO_C5_(229.00_x_162.00_MM)
  6

 40
0.0
 41
0.0
 42
0.0
 43
0.0
 44
229.0
 45
162.0
 46
0.0
 47
0.0
 48
0.0
 49
0.0
140
0.0
141
0.0
142
1.0
143
1.0
 70
 11952
 72
     1
 73
     0
 74
     0
  7

 75
    16
 76
     0
 77
     2
 78
   300
147
1.0
148
0.0
149
0.0
100
AcDbLayout
  1
Model
 70
     1
 71
     0
 10
0.0
 20
0.0
 11
2100.0
 21
2970.0
 12
0.0
 22
0.0
 32
0.0
 14
176.8264998564
 24
49.9980727422
 34
0.0
 15
2049.4323743066
 25
3294.7947093306
 35
0.0
146
0.0
 13
0.0
 23
0.0
 33
0.0
 16
1.0
 26
0.0
 36
0.0
 17
0.0
 27
1.0
 37
0.0
 76
     0
330
1F
331
97
  0
MLINESTYLE
  5
18
102
{ACAD_REACTORS
330
17
102
}
330
17
100
AcDbMlineStyle
  2
Standard
 70
     0
  3

 62
   256
 51
90.0
 52
90.0
 71
     2
 49
0.5
 62
   256
  6
BYLAYER
 49
-0.5
 62
   256
  6
BYLAYER
  0
ACDBPLACEHOLDER
  5
F
102
{ACAD_REACTORS
330
E
102
}
330
E
  0
SCALE
  5
66
102
{ACAD_REACTORS
330
99
102
}
330
99
100
AcDbScale
 70
     0
300
1:1
140
1.0
141
1.0
290
     1
  0
SCALE
  5
67
102
{ACAD_REACTORS
330
99
102
}
330
99
100
AcDbScale
 70
     0
300
1:2
140
1.0
141
2.0
290
     0
  0
SCALE
  5
68
102
{ACAD_REACTORS
330
99
102
}
330
99
100
AcDbScale
 70
     0
300
1:4
140
1.0
141
4.0
290
     0
  0
SCALE
  5
69
102
{ACAD_REACTORS
330
99
102
}
330
99
100
AcDbScale
 70
     0
300
1:5
140
1.0
141
5.0
290
     0
  0
SCALE
  5
6A
102
{ACAD_REACTORS
330
99
102
}
330
99
100
AcDbScale
 70
     0
300
1:8
140
1.0
141
8.0
290
     0
  0
SCALE
  5
20C
102
{ACAD_REACTORS
330
99
102
}
330
99
100
AcDbScale
 70
     0
300
1:10
140
1.0
141
10.0
290
     0
  0
SCALE
  5
20D
102
{ACAD_REACTORS
330
99
102
}
330
99
100
AcDbScale
 70
     0
300
1:16
140
1.0
141
16.0
290
     0
  0
SCALE
  5
6D
102
{ACAD_REACTORS
330
99
102
}
330
99
100
AcDbScale
 70
     0
300
1:20
140
1.0
141
20.0
290
     0
  0
SCALE
  5
6E
102
{ACAD_REACTORS
330
99
102
}
330
99
100
AcDbScale
 70
     0
300
1:30
140
1.0
141
30.0
290
     0
  0
SCALE
  5
6F
102
{ACAD_REACTORS
330
99
102
}
330
99
100
AcDbScale
 70
     0
300
1:40
140
1.0
141
40.0
290
     0
  0
SCALE
  5
70
102
{ACAD_REACTORS
330
99
102
}
330
99
100
AcDbScale
 70
     0
300
1:50
140
1.0
141
50.0
290
     0
  0
SCALE
  5
71
102
{ACAD_REACTORS
330
99
102
}
330
99
100
AcDbScale
 70
     0
300
1:100
140
1.0
141
100.0
290
     0
  0
SCALE
  5
72
102
{ACAD_REACTORS
330
99
102
}
330
99
100
AcDbScale
 70
     0
300
2:1
140
2.0
141
1.0
290
     0
  0
SCALE
  5
20E
102
{ACAD_REACTORS
330
99
102
}
330
99
100
AcDbScale
 70
     0
300
4:1
140
4.0
141
1.0
290
     0
  0
SCALE
  5
20F
102
{ACAD_REACTORS
330
99
102
}
330
99
100
AcDbScale
 70
     0
300
8:1
140
8.0
141
1.0
290
     0
  0
SCALE
  5
210
102
{ACAD_REACTORS
330
99
102
}
330
99
100
AcDbScale
 70
     0
300
10:1
140
10.0
141
1.0
290
     0
  0
SCALE
  5
211
102
{ACAD_REACTORS
330
99
102
}
330
99
100
AcDbScale
 70
     0
300
100:1
140
100.0
141
1.0
290
     0
  0
SCALE
  5
77
102
{ACAD_REACTORS
330
99
102
}
330
99
100
AcDbScale
 70
     0
300
1/128" = 1'-0"
140
0.0078125
141
12.0
290
     0
  0
SCALE
  5
78
102
{ACAD_REACTORS
330
99
102
}
330
99
100
AcDbScale
 70
     0
300
1/64" = 1'-0"
140
0.015625
141
12.0
290
     0
  0
SCALE
  5
79
102
{ACAD_REACTORS
330
99
102
}
330
99
100
AcDbScale
 70
     0
300
1/32" = 1'-0"
140
0.03125
141
12.0
290
     0
  0
SCALE
  5
7A
102
{ACAD_REACTORS
330
99
102
}
330
99
100
AcDbScale
 70
     0
300
1/16" = 1'-0"
140
0.0625
141
12.0
290
     0
  0
SCALE
  5
7B
102
{ACAD_REACTORS
330
99
102
}
330
99
100
AcDbScale
 70
     0
300
3/32" = 1'-0"
140
0.09375
141
12.0
290
     0
  0
SCALE
  5
7C
102
{ACAD_REACTORS
330
99
102
}
330
99
100
AcDbScale
 70
     0
300
1/8" = 1'-0"
140
0.125
141
12.0
290
     0
  0
SCALE
  5
7D
102
{ACAD_REACTORS
330
99
102
}
330
99
100
AcDbScale
 70
     0
300
3/16" = 1'-0"
140
0.1875
141
12.0
290
     0
  0
SCALE
  5
7E
102
{ACAD_REACTORS
330
99
102
}
330
99
100
AcDbScale
 70
     0
300
1/4" = 1'-0"
140
0.25
141
12.0
290
     0
  0
SCALE
  5
7F
102
{ACAD_REACTORS
330
99
102
}
330
99
100
AcDbScale
 70
     0
300
3/8" = 1'-0"
140
0.375
141
12.0
290
     0
  0
SCALE
  5
80
102
{ACAD_REACTORS
330
99
102
}
330
99
100
AcDbScale
 70
     0
300
1/2" = 1'-0"
140
0.5
141
12.0
290
     0
  0
SCALE
  5
81
102
{ACAD_REACTORS
330
99
102
}
330
99
100
AcDbScale
 70
     0
300
3/4" = 1'-0"
140
0.75
141
12.0
290
     0
  0
SCALE
  5
82
102
{ACAD_REACTORS
330
99
102
}
330
99
100
AcDbScale
 70
     0
300
1" = 1'-0"
140
1.0
141
12.0
290
     0
  0
SCALE
  5
83
102
{ACAD_REACTORS
330
99
102
}
330
99
100
AcDbScale
 70
     0
300
1-1/2" = 1'-0"
140
1.5
141
12.0
290
     0
  0
SCALE
  5
84
102
{ACAD_REACTORS
330
99
102
}
330
99
100
AcDbScale
 70
     0
300
3" = 1'-0"
140
3.0
141
12.0
290
     0
  0
SCALE
  5
85
102
{ACAD_REACTORS
330
99
102
}
330
99
100
AcDbScale
 70
     0
300
6" = 1'-0"
140
6.0
141
12.0
290
     0
  0
SCALE
  5
86
102
{ACAD_REACTORS
330
99
102
}
330
99
100
AcDbScale
 70
     0
300
1'-0" = 1'-0"
140
12.0
141
12.0
290
     0
  0
TABLESTYLE
  5
93
102
{ACAD_REACTORS
330
92
102
}
330
92
100
AcDbTableStyle
  3
Standard
 70
     0
 71
     0
 40
0.06
 41
0.06
280
     0
281
     0
  7
Standard
140
0.18
170
     2
 62
     0
 63
     7
283
     0
 90
      512
 91
        0
  1

274
    -2
284
     1
 64
     0
275
    -2
285
     1
 65
     0
276
    -2
286
     1
 66
     0
277
    -2
287
     1
 67
     0
278
    -2
288
     1
 68
     0
279
    -2
289
     1
 69
     0
  7
Standard
140
0.25
170
     5
 62
     0
 63
     7
283
     0
 90
      512
 91
        0
  1

274
    -2
284
     1
 64
     0
275
    -2
285
     1
 65
     0
276
    -2
286
     1
 66
     0
277
    -2
287
     1
 67
     0
278
    -2
288
     1
 68
     0
279
    -2
289
     1
 69
     0
  7
Standard
140
0.18
170
     5
 62
     0
 63
     7
283
     0
 90
      512
 91
        0
  1

274
    -2
284
     1
 64
     0
275
    -2
285
     1
 65
     0
276
    -2
286
     1
 66
     0
277
    -2
287
     1
 67
     0
278
    -2
288
     1
 68
     0
279
    -2
289
     1
 69
     0
  0
VISUALSTYLE
  5
2F
102
{ACAD_REACTORS
330
2A
102
}
330
2A
100
AcDbVisualStyle
  2
2dWireframe
 70
     4
 71
     0
 72
     2
 73
     0
 90
        0
 40
-0.6
 41
-30.0
 62
     5
 63
     7
 74
     1
 91
        4
 64
     7
 65
   257
 75
     1
175
     1
 42
1.0
 92
        0
 66
   257
 43
1.0
 76
     1
 77
     6
 78
     2
 67
     7
 79
     5
170
     0
171
     0
290
     1
174
     0
 93
        1
 44
0.0
173
     0
291
     1
 45
0.0
  0
VISUALSTYLE
  5
31
102
{ACAD_REACTORS
330
2A
102
}
330
2A
100
AcDbVisualStyle
  2
3D Hidden
 70
     6
 71
     1
 72
     2
 73
     2
 90
        0
 40
-0.6
 41
-30.0
 62
     5
 63
     7
 74
     2
 91
        2
 64
     7
 65
   257
 75
     2
175
     1
 42
40.0
 92
        0
 66
   257
 43
1.0
 76
     1
 77
     6
 78
     2
 67
     7
 79
     3
170
     0
171
     0
290
     1
174
     0
 93
        1
 44
0.0
173
     0
291
     1
 45
0.0
  0
VISUALSTYLE
  5
30
102
{ACAD_REACTORS
330
2A
102
}
330
2A
100
AcDbVisualStyle
  2
3dWireframe
 70
     5
 71
     0
 72
     2
 73
     0
 90
        0
 40
-0.6
 41
-30.0
 62
     5
 63
     7
 74
     1
 91
        4
 64
     7
 65
   257
 75
     1
175
     1
 42
1.0
 92
        0
 66
   257
 43
1.0
 76
     1
 77
     6
 78
     2
 67
     7
 79
     5
170
     0
171
     0
290
     1
174
     0
 93
        1
 44
0.0
173
     0
291
     1
 45
0.0
  0
VISUALSTYLE
  5
32
102
{ACAD_REACTORS
330
2A
102
}
330
2A
100
AcDbVisualStyle
  2
Basic
 70
     7
 71
     1
 72
     0
 73
     1
 90
        0
 40
-0.6
 41
-30.0
 62
     5
 63
     7
 74
     0
 91
        4
 64
     7
 65
   257
 75
     1
175
     1
 42
1.0
 92
        8
 66
     7
 43
1.0
 76
     1
 77
     6
 78
     2
 67
     7
 79
     5
170
     0
171
     0
290
     1
174
     0
 93
        1
 44
0.0
173
     0
291
     1
 45
0.0
  0
VISUALSTYLE
  5
36
102
{ACAD_REACTORS
330
2A
102
}
330
2A
100
AcDbVisualStyle
  2
Brighten
 70
    12
 71
     2
 72
     2
 73
     0
 90
        0
 40
-0.6
 41
-30.0
 62
     5
 63
     7
 74
     1
 91
        4
 64
     7
 65
   257
 75
     1
175
     1
 42
1.0
 92
        8
 66
     7
 43
1.0
 76
     1
 77
     6
 78
     2
 67
     7
 79
     5
170
     0
171
     0
290
     1
174
     0
 93
        1
 44
50.0
173
     0
291
     1
 45
0.0
  0
VISUALSTYLE
  5
3A
102
{ACAD_REACTORS
330
2A
102
}
330
2A
100
AcDbVisualStyle
  2
ColorChange
 70
    16
 71
     2
 72
     2
 73
     3
 90
        0
 40
-0.6
 41
-30.0
 62
     5
 63
     8
 74
     1
 91
        4
 64
     7
 65
   257
 75
     1
175
     1
 42
1.0
 92
        8
 66
     8
 43
1.0
 76
     1
 77
     6
 78
     2
 67
     7
 79
     5
170
     0
171
     0
290
     1
174
     0
 93
        1
 44
0.0
173
     0
291
     1
 45
0.0
  0
VISUALSTYLE
  5
34
102
{ACAD_REACTORS
330
2A
102
}
330
2A
100
AcDbVisualStyle
  2
Conceptual
 70
     9
 71
     3
 72
     2
 73
     0
 90
        0
 40
-0.6
 41
-30.0
 62
     5
 63
     7
 74
     2
 91
        2
 64
     7
 65
   257
 75
     1
175
     1
 42
40.0
 92
        8
 66
     7
 43
1.0
 76
     1
 77
     6
 78
     2
 67
     7
 79
     3
170
     0
171
     0
290
     1
174
     0
 93
        1
 44
0.0
173
     0
291
     1
 45
0.0
  0
VISUALSTYLE
  5
35
102
{ACAD_REACTORS
330
2A
102
}
330
2A
100
AcDbVisualStyle
  2
Dim
 70
    11
 71
     2
 72
     2
 73
     0
 90
        0
 40
-0.6
 41
-30.0
 62
     5
 63
     7
 74
     1
 91
        4
 64
     7
 65
   257
 75
     1
175
     1
 42
1.0
 92
        8
 66
     7
 43
1.0
 76
     1
 77
     6
 78
     2
 67
     7
 79
     5
170
     0
171
     0
290
     1
174
     0
 93
        1
 44
-50.0
173
     0
291
     1
 45
0.0
  0
VISUALSTYLE
  5
39
102
{ACAD_REACTORS
330
2A
102
}
330
2A
100
AcDbVisualStyle
  2
Facepattern
 70
    15
 71
     2
 72
     2
 73
     0
 90
        0
 40
-0.6
 41
-30.0
 62
     5
 63
     7
 74
     1
 91
        4
 64
     7
 65
   257
 75
     1
175
     1
 42
1.0
 92
        8
 66
     7
 43
1.0
 76
     1
 77
     6
 78
     2
 67
     7
 79
     5
170
     0
171
     0
290
     1
174
     0
 93
        1
 44
0.0
173
     0
291
     1
 45
0.0
  0
VISUALSTYLE
  5
2B
102
{ACAD_REACTORS
330
2A
102
}
330
2A
100
AcDbVisualStyle
  2
Flat
 70
     0
 71
     2
 72
     1
 73
     1
 90
        2
 40
-0.6
 41
30.0
 62
     5
 63
     7
 74
     0
 91
        4
 64
     7
 65
   257
 75
     1
175
     1
 42
1.0
 92
        8
 66
     7
 43
1.0
 76
     1
 77
     6
 78
     2
 67
     7
 79
     5
170
     0
171
     0
290
     1
174
     0
 93
       13
 44
0.0
173
     0
291
     1
 45
0.0
  0
VISUALSTYLE
  5
2C
102
{ACAD_REACTORS
330
2A
102
}
330
2A
100
AcDbVisualStyle
  2
FlatWithEdges
 70
     1
 71
     2
 72
     1
 73
     1
 90
        2
 40
-0.6
 41
30.0
 62
     5
 63
     7
 74
     1
 91
        4
 64
     7
 65
   257
 75
     1
175
     1
 42
1.0
 92
        0
 66
   257
 43
1.0
 76
     1
 77
     6
 78
     2
 67
     7
 79
     5
170
     0
171
     0
290
     1
174
     0
 93
       13
 44
0.0
173
     0
291
     1
 45
0.0
  0
VISUALSTYLE
  5
2D
102
{ACAD_REACTORS
330
2A
102
}
330
2A
100
AcDbVisualStyle
  2
Gouraud
 70
     2
 71
     2
 72
     2
 73
     1
 90
        2
 40
-0.6
 41
30.0
 62
     5
 63
     7
 74
     0
 91
        4
 64
     7
 65
   257
 75
     1
175
     1
 42
1.0
 92
        0
 66
     7
 43
1.0
 76
     1
 77
     6
 78
     2
 67
     7
 79
     5
170
     0
171
     0
290
     1
174
     0
 93
       13
 44
0.0
173
     0
291
     1
 45
0.0
  0
VISUALSTYLE
  5
2E
102
{ACAD_REACTORS
330
2A
102
}
330
2A
100
AcDbVisualStyle
  2
GouraudWithEdges
 70
     3
 71
     2
 72
     2
 73
     1
 90
        2
 40
-0.6
 41
30.0
 62
     5
 63
     7
 74
     1
 91
        4
 64
     7
 65
   257
 75
     1
175
     1
 42
1.0
 92
        0
 66
   257
 43
1.0
 76
     1
 77
     6
 78
     2
 67
     7
 79
     5
170
     0
171
     0
290
     1
174
     0
 93
       13
 44
0.0
173
     0
291
     1
 45
0.0
  0
VISUALSTYLE
  5
38
102
{ACAD_REACTORS
330
2A
102
}
330
2A
100
AcDbVisualStyle
  2
Linepattern
 70
    14
 71
     2
 72
     2
 73
     0
 90
        0
 40
-0.6
 41
-30.0
 62
     5
 63
     7
 74
     1
 91
        4
 64
     7
 65
   257
 75
     7
175
     7
 42
1.0
 92
        8
 66
     7
 43
1.0
 76
     1
 77
     6
 78
     2
 67
     7
 79
     5
170
     0
171
     0
290
     1
174
     0
 93
        1
 44
0.0
173
     0
291
     1
 45
0.0
  0
VISUALSTYLE
  5
33
102
{ACAD_REACTORS
330
2A
102
}
330
2A
100
AcDbVisualStyle
  2
Realistic
 70
     8
 71
     2
 72
     2
 73
     0
 90
        0
 40
-0.6
 41
-30.0
 62
     5
 63
     7
 74
     1
 91
        0
 64
     7
 65
   257
 75
     1
175
     1
 42
1.0
 92
        8
 66
     8
 43
1.0
 76
     1
 77
     6
 78
     2
 67
     7
 79
     5
170
     0
171
     0
290
     1
174
     0
 93
       13
 44
0.0
173
     0
291
     1
 45
0.0
  0
VISUALSTYLE
  5
37
102
{ACAD_REACTORS
330
2A
102
}
330
2A
100
AcDbVisualStyle
  2
Thicken
 70
    13
 71
     2
 72
     2
 73
     0
 90
        0
 40
-0.6
 41
-30.0
 62
     5
 63
     7
 74
     1
 91
        4
 64
     7
 65
   257
 75
     1
175
     1
 42
1.0
 92
       12
 66
     7
 43
1.0
 76
     1
 77
     6
 78
     2
 67
     7
 79
     5
170
     0
171
     0
290
     1
174
     0
 93
        1
 44
0.0
173
     0
291
     1
 45
0.0
  0
DICTIONARYVAR
  5
22E
102
{ACAD_REACTORS
330
59
102
}
330
59
100
DictionaryVariables
280
     0
  1
1:1
  0
DICTIONARYVAR
  5
98
102
{ACAD_REACTORS
330
59
102
}
330
59
100
DictionaryVariables
280
     0
  1
Standard
  0
DICTIONARYVAR
  5
1FF
102
{ACAD_REACTORS
330
59
102
}
330
59
100
DictionaryVariables
280
     0
  1
2
  0
DICTIONARYVAR
  5
200
102
{ACAD_REACTORS
330
59
102
}
330
59
100
DictionaryVariables
280
     0
  1
1
  0
ENDSEC
  0
EOF
